<?xml version="1.0" standalone="no"?>
<!DOCTYPE svg PUBLIC "-//W3C//DTD SVG 1.1//EN" "http://www.w3.org/Graphics/SVG/1.1/DTD/svg11.dtd" >
<svg xmlns="http://www.w3.org/2000/svg">
<metadata>Generated by IcoMoon</metadata>
<defs>
<font id="icon" horiz-adv-x="1024">
<font-face units-per-em="1024" ascent="960" descent="-64" />
<missing-glyph horiz-adv-x="1024" />
<glyph unicode="&#x20;" horiz-adv-x="512" d="" />
<glyph unicode="&#xe900;" glyph-name="cart-l" d="M478.87 128c35.366 0 64.035 28.598 64.035 63.872 0 35.277-28.669 63.872-64.035 63.872s-64.035-28.595-64.035-63.872c0-35.274 28.669-63.872 64.035-63.872zM702.995 128c35.366 0 64.035 28.598 64.035 63.872 0 35.277-28.669 63.872-64.035 63.872s-64.035-28.595-64.035-63.872c0-35.274 28.669-63.872 64.035-63.872zM810.893 666.124c-9.014 11.477-20.534 20.751-33.683 27.115s-27.584 9.652-42.198 9.611h-261.901c-8.49 0-16.634-3.365-22.637-9.354-6.006-5.989-9.379-14.112-9.379-22.582s3.373-16.593 9.379-22.582c6.003-5.989 14.147-9.353 22.637-9.353h261.901c4.864 0.026 9.667-1.053 14.051-3.158 4.381-2.102 8.227-5.171 11.242-8.979 2.992-3.837 5.069-8.307 6.067-13.066 0.998-4.762 0.896-9.686-0.304-14.4l-28.816-115.606c-2.63-10.387-8.653-19.603-17.117-26.195s-18.89-10.186-29.629-10.214h-192.102c-9.84 0.141-19.405 3.27-27.418 8.979-8.010 5.706-14.080 13.715-17.405 22.957l-87.728 227.067c-6.934 18.116-19.216 33.708-35.222 44.713s-34.984 16.907-54.425 16.924h-52.188c-8.492 0-16.635-3.365-22.639-9.354s-9.378-14.112-9.378-22.582c0-8.47 3.374-16.593 9.378-22.582s14.148-9.354 22.639-9.354h52.188c6.487-0.044 12.808-2.052 18.125-5.759s9.38-8.938 11.651-14.999l124.867-322.557c8.086-21.091 22.384-39.245 41.018-52.070 18.63-12.829 40.72-19.725 63.36-19.786h169.050c8.49 0 16.634 3.366 22.637 9.354 6.006 5.99 9.379 14.115 9.379 22.582 0 8.47-3.373 16.595-9.379 22.582-6.003 5.99-14.147 9.354-22.637 9.354h-169.050c-9.843 0.141-19.411 3.274-27.421 8.979s-14.080 13.715-17.405 22.96v2.234c2.666-0.176 5.338-0.176 8.003 0h194.026c25.011-0.035 49.312 8.278 69.040 23.616s33.744 36.813 39.818 61.014l28.816 115.61c2.781 13.75 2.502 27.939-0.816 41.571-3.318 13.63-9.6 26.367-18.394 37.311z" />
<glyph unicode="&#xe901;" glyph-name="cart-move-l" d="M280.961 672c0 8.487 3.37 16.628 9.371 22.629s14.142 9.371 22.629 9.371h202.239c4.083-22.037 10.742-43.517 19.84-64h-222.079c-8.487 0-16.628 3.372-22.629 9.373s-9.371 14.14-9.371 22.627zM318.721 256c-12.658 0-25.032-3.754-35.556-10.784-10.525-7.034-18.728-17.030-23.572-28.723-4.844-11.696-6.112-24.563-3.643-36.976 2.469-12.416 8.565-23.821 17.516-32.771s20.355-15.046 32.769-17.514c12.415-2.47 25.283-1.203 36.975 3.642 11.696 4.845 21.693 13.046 28.723 23.571 7.034 10.525 10.787 22.896 10.787 35.555-0.083 16.918-6.864 33.117-18.858 45.050s-28.224 18.63-45.142 18.63v0.32zM542.72 256c-12.656 0-25.030-3.754-35.555-10.784-10.525-7.034-18.73-17.030-23.574-28.723-4.842-11.696-6.112-24.563-3.642-36.976 2.47-12.416 8.566-23.821 17.517-32.771s20.355-15.046 32.768-17.514c12.416-2.47 25.283-1.203 36.976 3.642 11.696 4.845 21.693 13.046 28.723 23.571 7.034 10.525 10.787 22.896 10.787 35.555-0.083 16.918-6.864 33.117-18.858 45.050s-28.224 18.63-45.142 18.63v0.32zM576.96 484.8c-2.63-10.406-8.65-19.638-17.107-26.246-8.461-6.605-18.88-10.205-29.613-10.234h-192c-9.837 0.141-19.396 3.277-27.402 8.995s-14.076 13.744-17.398 23.005l-87.68 227.52c-6.981 18.092-19.277 33.648-35.271 44.615s-34.935 16.834-54.328 16.826h-52.16c-8.487 0-16.626-3.372-22.627-9.373s-9.373-14.14-9.373-22.627c0-8.487 3.372-16.628 9.373-22.629s14.14-9.371 22.627-9.371h52.16c6.446-0.019 12.737-1.984 18.047-5.639s9.392-8.828 11.713-14.842l124.48-323.521c8.25-21.082 22.628-39.213 41.279-52.045 18.653-12.835 40.72-19.782 63.36-19.955h168.96c8.486 0 16.627 3.37 22.627 9.373 6 6 9.373 14.141 9.373 22.627 0 8.49-3.373 16.627-9.373 22.627-6 6.003-14.141 9.373-22.627 9.373h-170.24c-9.837 0.141-19.398 3.277-27.402 8.995-8.006 5.718-14.077 13.747-17.398 23.005v2.24c2.771-0.157 5.549-0.157 8.32 0h193.92c24.995-0.032 49.29 8.298 69.005 23.664s33.725 36.886 39.795 61.136l11.2 45.44c-20.24 10.032-39.248 22.384-56.64 36.8l-17.6-69.76zM990.72 752c0-41.139-12.198-81.353-35.053-115.558-22.858-34.205-55.341-60.864-93.35-76.608-38.006-15.744-79.827-19.862-120.176-11.837s-77.408 27.837-106.499 56.925c-29.088 29.088-48.899 66.152-56.925 106.5s-3.907 82.171 11.837 120.178c15.741 38.007 42.403 70.49 76.608 93.346s74.419 35.055 115.558 35.055c27.344 0 54.416-5.39 79.674-15.863 25.254-10.473 48.198-25.823 67.52-45.172 19.318-19.348 34.63-42.315 45.066-67.588 10.432-25.273 15.782-52.356 15.741-79.697v0.32zM926.72 752c0 28.481-8.445 56.321-24.269 80.002s-38.314 42.138-64.624 53.037c-26.314 10.899-55.267 13.752-83.2 8.195s-53.59-19.271-73.731-39.41c-20.138-20.139-33.853-45.797-39.411-73.731-5.555-27.933-2.701-56.887 8.198-83.199 10.896-26.312 29.354-48.802 53.037-64.626 23.68-15.821 51.52-24.269 80-24.269 18.896-0.042 37.613 3.645 55.082 10.845 17.469 7.203 33.347 17.779 46.723 31.126s23.987 29.2 31.226 46.652c7.242 17.453 10.97 36.161 10.97 55.057v0.32zM841.92 840h-96c-7.638 0-14.963-3.035-20.365-8.436s-8.435-12.725-8.435-20.363c0-7.638 3.034-14.964 8.435-20.365s12.726-8.436 20.365-8.436h26.56l-69.12-69.119c-5.376-5.397-8.39-12.704-8.39-20.32s3.014-14.923 8.39-20.32c2.589-2.745 5.715-4.93 9.184-6.416 3.466-1.486 7.203-2.244 10.976-2.225 3.814 0.012 7.59 0.782 11.107 2.266s6.701 3.65 9.373 6.375l69.12 69.119v-27.199c0-3.782 0.746-7.527 2.192-11.021s3.568-6.669 6.243-9.344c2.675-2.674 5.85-4.795 9.344-6.242s7.238-2.194 11.021-2.194c3.782 0 7.526 0.746 11.021 2.194s6.669 3.568 9.344 6.242c2.675 2.675 4.797 5.85 6.243 9.344s2.192 7.239 2.192 11.021v96c0.042 3.809-0.672 7.588-2.099 11.119s-3.542 6.745-6.221 9.453c-2.682 2.708-5.869 4.859-9.386 6.326-3.514 1.468-7.286 2.221-11.094 2.221v0.32z" />
<glyph unicode="&#xe902;" glyph-name="cart-plus-l" d="M382.72 192c0-12.659-3.754-25.030-10.784-35.555-7.034-10.525-17.030-18.73-28.723-23.571-11.696-4.845-24.564-6.112-36.979-3.645-12.415 2.47-23.819 8.566-32.769 17.517s-15.045 20.355-17.515 32.768c-2.469 12.416-1.202 25.283 3.642 36.979 4.844 11.693 13.048 21.69 23.572 28.72 10.525 7.034 22.898 10.787 35.556 10.787 16.973 0 33.252-6.742 45.255-18.746s18.746-28.282 18.746-45.254zM312.96 640h222.080c-9.098 20.482-15.757 41.962-19.84 63.999h-202.24c-8.487 0-16.626-3.37-22.627-9.371s-9.373-14.142-9.373-22.629c0-8.487 3.372-16.626 9.373-22.627s14.14-9.372 22.627-9.372zM542.72 256c-12.659 0-25.030-3.754-35.555-10.787-10.525-7.030-18.73-17.027-23.574-28.72-4.842-11.696-6.109-24.563-3.642-36.979 2.47-12.413 8.566-23.818 17.517-32.768s20.355-15.046 32.768-17.517c12.416-2.467 25.283-1.2 36.979 3.645 11.693 4.842 21.69 13.046 28.723 23.571 7.030 10.525 10.784 22.896 10.784 35.555 0 16.973-6.742 33.251-18.746 45.254s-28.282 18.746-45.254 18.746zM576.96 484.8c-2.63-10.406-8.65-19.642-17.11-26.246-8.458-6.605-18.877-10.205-29.61-10.234h-192c-9.837 0.138-19.397 3.277-27.403 8.995s-14.075 13.744-17.396 23.005l-87.681 227.521c-6.981 18.092-19.278 33.646-35.272 44.613s-34.934 16.834-54.327 16.826h-52.16c-8.487 0-16.626-3.372-22.627-9.373s-9.373-14.14-9.373-22.627c0-8.487 3.372-16.626 9.373-22.627s14.14-9.373 22.627-9.373h52.16c6.446-0.019 12.737-1.984 18.047-5.639s9.392-8.828 11.713-14.842l124.48-323.52c8.25-21.085 22.628-39.213 41.279-52.048 18.653-12.832 40.72-19.782 63.36-19.952h168.96c8.486 0 16.627 3.373 22.627 9.373 6.003 6.003 9.373 14.141 9.373 22.627s-3.37 16.627-9.373 22.627c-6 6-14.141 9.373-22.627 9.373h-170.24c-9.837 0.138-19.398 3.277-27.402 8.995-8.006 5.718-14.077 13.744-17.398 23.005v2.24c2.771-0.157 5.549-0.157 8.32 0h193.92c24.998-0.035 49.286 8.294 69.005 23.664 19.715 15.366 33.725 36.886 39.795 61.136l11.2 45.44c-20.256 10.134-39.264 22.592-56.64 37.12l-17.6-70.080zM990.72 751.999c0-41.139-12.198-81.353-35.053-115.557-22.858-34.208-55.341-60.864-93.35-76.608-38.006-15.744-79.827-19.862-120.176-11.837s-77.411 27.834-106.499 56.925c-29.088 29.088-48.899 66.151-56.925 106.499s-3.907 82.171 11.837 120.178c15.741 38.007 42.403 70.492 76.608 93.348s74.419 35.053 115.558 35.053c55.165 0 108.070-21.914 147.078-60.922s60.922-91.913 60.922-147.078zM926.72 751.999c0 28.481-8.445 56.323-24.269 80.004-15.821 23.681-38.314 42.136-64.624 53.035-26.314 10.899-55.267 13.752-83.2 8.195s-53.59-19.271-73.731-39.41c-20.138-20.139-33.853-45.797-39.408-73.731-5.558-27.933-2.704-56.887 8.195-83.199 10.896-26.312 29.354-48.802 53.034-64.625 23.683-15.824 51.523-24.269 80.003-24.269 18.922-0.042 37.667 3.654 55.155 10.877 17.491 7.222 33.382 17.827 46.762 31.206 13.382 13.38 23.987 29.27 31.206 46.76 7.222 17.49 10.918 36.234 10.877 55.156zM845.44 783.999h-32v32c0 8.487-3.373 16.628-9.373 22.629s-14.141 9.371-22.627 9.371c-8.486 0-16.627-3.37-22.627-9.371s-9.373-14.142-9.373-22.629v-32h-32c-8.486 0-16.627-3.37-22.627-9.371s-9.373-14.142-9.373-22.629c0-8.487 3.373-16.626 9.373-22.627s14.141-9.373 22.627-9.373h32v-32c0-8.487 3.373-16.626 9.373-22.627s14.141-9.373 22.627-9.373c8.486 0 16.627 3.372 22.627 9.373s9.373 14.14 9.373 22.627v32h32c8.486 0 16.627 3.372 22.627 9.373s9.373 14.14 9.373 22.627c0 8.487-3.373 16.628-9.373 22.629s-14.141 9.371-22.627 9.371z" />
<glyph unicode="&#xe903;" glyph-name="cart-selected-l" d="M475.843 128c35.347 0 64 28.653 64 64s-28.653 64-64 64c-35.347 0-64-28.653-64-64s28.653-64 64-64zM699.843 128c35.347 0 64 28.653 64 64s-28.653 64-64 64c-35.347 0-64-28.653-64-64s28.653-64 64-64zM810.88 667.2c-9.008 11.5-20.522 20.792-33.664 27.169s-27.568 9.671-42.176 9.63h-369.277v2.24c-6.931 18.152-19.21 33.775-35.206 44.802-15.998 11.027-34.966 16.94-54.397 16.958h-52.16c-8.487 0-16.626-3.372-22.627-9.372s-9.373-14.14-9.373-22.628c0-8.487 3.372-16.626 9.373-22.627s14.14-9.373 22.627-9.373h52.16c6.484-0.044 12.803-2.056 18.117-5.771s9.373-8.956 11.643-15.029l124.8-323.2c8.080-21.133 22.374-39.325 40.995-52.176 18.621-12.854 40.701-19.763 63.325-19.824h168.96c8.486 0 16.627 3.373 22.63 9.373 6 6 9.37 14.141 9.37 22.627s-3.37 16.627-9.37 22.627c-6.003 6-14.144 9.373-22.63 9.373h-168.96c-9.837 0.138-19.398 3.277-27.405 8.995-8.003 5.718-14.074 13.744-17.395 23.005v2.24c2.666-0.176 5.338-0.176 8 0h193.92c24.998-0.035 49.29 8.294 69.005 23.664 19.718 15.366 33.725 36.886 39.795 61.136l28.803 115.84c3.021 13.949 2.893 28.397-0.371 42.291-3.267 13.895-9.59 26.886-18.512 38.029z" />
<glyph unicode="&#xe904;" glyph-name="cart-selected-minus-l" d="M380.48 192.317c0-12.656-3.754-25.027-10.787-35.552-7.030-10.525-17.027-18.73-28.72-23.574-11.696-4.842-24.563-6.112-36.978-3.642s-23.819 8.566-32.77 17.517c-8.951 8.95-15.046 20.352-17.516 32.768s-1.202 25.283 3.643 36.976c4.844 11.696 13.046 21.69 23.571 28.723s22.899 10.784 35.556 10.784c16.972 0 33.254-6.739 45.254-18.742 12.003-12.003 18.746-28.282 18.746-45.258zM540.48 256.317c-12.656 0-25.030-3.75-35.555-10.784s-18.73-17.027-23.571-28.723c-4.845-11.693-6.112-24.56-3.645-36.976 2.47-12.416 8.566-23.818 17.517-32.768s20.355-15.046 32.768-17.517c12.416-2.47 25.283-1.2 36.979 3.642 11.693 4.845 21.69 13.050 28.72 23.574 7.034 10.525 10.787 22.896 10.787 35.552 0 16.976-6.742 33.254-18.746 45.258-12 12.003-28.282 18.742-45.254 18.742zM515.84 704.318h-310.079v2.24c-6.981 18.092-19.279 33.648-35.273 44.615s-34.934 16.834-54.327 16.826h-52.16c-8.487 0-16.626-3.372-22.627-9.373s-9.373-14.14-9.373-22.627c0-8.487 3.372-16.628 9.373-22.629s14.14-9.371 22.627-9.371h52.16c6.446-0.019 12.737-1.984 18.047-5.639s9.393-8.828 11.714-14.842l124.479-323.52c8.25-21.085 22.628-39.213 41.279-52.048 18.653-12.832 40.72-19.782 63.36-19.952h168.96c8.486 0 16.627 3.37 22.627 9.37 6.003 6.003 9.373 14.144 9.373 22.63s-3.37 16.627-9.373 22.627c-6 6-14.141 9.373-22.627 9.373h-169.92c-9.837 0.138-19.395 3.277-27.402 8.995s-14.077 13.744-17.398 23.005v2.237c2.771-0.157 5.549-0.157 8.32 0h193.92c24.998-0.032 49.29 8.298 69.005 23.664 19.715 15.37 33.725 36.89 39.795 61.139l11.2 45.44c-35.107 19.437-65.494 46.378-89.002 78.899s-39.552 69.828-46.998 109.26l0.32-0.32zM991.36 752c0-41.139-12.198-81.353-35.053-115.558-22.858-34.205-55.341-60.867-93.347-76.608-38.010-15.744-79.83-19.862-120.179-11.837s-77.408 27.837-106.499 56.925c-29.088 29.088-48.899 66.15-56.925 106.498s-3.907 82.171 11.837 120.178c15.744 38.007 42.403 70.492 76.608 93.348s74.419 35.055 115.558 35.055c55.056-0.085 107.83-21.993 146.758-60.922 38.931-38.929 60.838-91.706 60.922-146.76l0.32-0.318zM927.36 752c0 28.481-8.445 56.321-24.269 80.002-15.821 23.681-38.31 42.136-64.624 53.035s-55.267 13.752-83.2 8.195c-27.933-5.556-53.59-19.271-73.731-39.41-20.138-20.139-33.853-45.797-39.408-73.731-5.558-27.933-2.704-56.887 8.195-83.199s29.354-48.802 53.034-64.624c23.683-15.824 51.523-24.269 80.003-24.269 18.922 0 37.658 3.738 55.133 10.998 17.472 7.261 33.341 17.901 46.691 31.31s23.92 29.324 31.104 46.83c7.184 17.506 10.835 36.258 10.752 55.18l0.32-0.318zM846.080 784h-128c-8.486 0-16.627-3.372-22.627-9.373s-9.373-14.14-9.373-22.627c0-8.487 3.373-16.628 9.373-22.629s14.141-9.371 22.627-9.371h128c8.486 0 16.627 3.37 22.627 9.371 6.003 6.001 9.373 14.142 9.373 22.629s-3.37 16.626-9.373 22.627c-6 6.001-14.141 9.373-22.627 9.373z" />
<glyph unicode="&#xe905;" glyph-name="keep-l" d="M671.821 767.98h-230.832c-19.766-0.371-38.963-6.67-55.088-18.079-16.128-11.409-28.435-27.397-35.322-45.882h240.768c29.197 0.6 57.443-10.375 78.538-30.519 21.098-20.144 33.322-47.811 33.994-76.934v-351.786c2.867-6.051 7.408-11.165 13.088-14.733s12.259-5.446 18.973-5.414c4.752-0.070 9.462 0.912 13.786 2.88 5.312 2.518 9.824 6.448 13.046 11.354 3.226 4.909 5.034 10.605 5.229 16.467v420.542c-0.25 12.348-2.938 24.526-7.907 35.838s-12.125 21.537-21.056 30.090c-8.931 8.553-19.466 15.267-30.998 19.759s-23.84 6.672-36.218 6.417zM640.72 128.374c-7.45-0.106-14.704 2.384-20.515 7.037l-134.973 110.97c-5.738 4.704-12.934 7.277-20.358 7.277-7.427 0-14.621-2.573-20.358-7.277l-135.934-110.97c-4.706-3.914-10.436-6.397-16.513-7.158-6.077-0.765-12.246 0.224-17.777 2.848s-10.192 6.774-13.433 11.958c-3.241 5.184-4.926 11.187-4.855 17.296v415.744c0 25.443 10.134 49.846 28.172 67.84 18.037 17.992 42.498 28.1 68.008 28.1h224.419c25.507 0 49.971-10.108 68.010-28.1 18.038-17.994 28.17-42.397 28.17-67.84v-415.744c0.045-6.083-1.651-12.051-4.886-17.206-3.238-5.155-7.882-9.28-13.386-11.898-4.358-1.866-9.046-2.845-13.789-2.877zM352.182 608.080c-8.502 0-16.656-3.37-22.669-9.366-6.013-6-9.392-14.134-9.392-22.614v-348.266l83.357 68.118c17.21 14.109 38.797 21.824 61.075 21.824 22.275 0 43.862-7.715 61.075-21.824l83.674-68.118v348.266c0 8.48-3.376 16.614-9.389 22.614-6.013 5.997-14.166 9.366-22.669 9.366h-225.062z" />
<glyph unicode="&#xe906;" glyph-name="keep-move-l" d="M388.16 704.959h-133.12c6.602 18.674 18.818 34.849 34.974 46.307s35.461 17.638 55.266 17.693h39.36c0-5.12 0-10.56 0-16-0.125-16.069 1.053-32.121 3.52-48zM512.64 228.48l-83.52 68.16c-17.178 14.122-38.723 21.84-60.96 21.84s-43.782-7.718-60.96-21.84l-83.2-68.16v348.8c0 8.486 3.372 16.627 9.373 22.627 6.001 6.003 14.14 9.373 22.627 9.373h169.28c-12.563 19.958-22.461 41.474-29.44 63.999h-139.84c-25.461 0-49.878-10.114-67.882-28.117s-28.118-42.423-28.118-67.882v-416c0.046-6.067 1.814-11.994 5.1-17.091 3.286-5.101 7.955-9.162 13.46-11.709 5.469-2.582 11.558-3.565 17.561-2.829s11.676 3.162 16.358 6.989l135.68 110.72c5.725 4.707 12.909 7.28 20.32 7.28s14.595-2.573 20.32-7.28l135.68-110.72c5.757-4.771 13.002-7.376 20.48-7.36 4.768 0.029 9.469 1.123 13.76 3.2 5.446 2.595 10.048 6.672 13.274 11.77 3.229 5.094 4.95 10.998 4.966 17.030v330.56c-22.525 6.979-44.042 16.877-64 29.44l-0.32-292.8zM608.64 484.48v-240.64c2.97-5.949 7.533-10.957 13.184-14.461s12.166-5.366 18.816-5.379c4.736-0.003 9.421 0.976 13.76 2.88 5.302 2.518 9.808 6.451 13.024 11.363 3.219 4.909 5.021 10.611 5.216 16.477v226.24c-5.12 0-10.56 0-16 0-16.416 0.141-32.79 1.638-48.96 4.48l0.96-0.96zM864.64 752c0-41.139-12.198-81.353-35.053-115.558-22.858-34.205-55.341-60.867-93.35-76.608-38.006-15.744-79.827-19.862-120.176-11.837s-77.411 27.837-106.499 56.925c-29.088 29.088-48.899 66.152-56.925 106.5s-3.907 82.169 11.837 120.176c15.744 38.007 42.403 70.492 76.608 93.348s74.419 35.055 115.558 35.055c54.832-0.252 107.347-22.147 146.122-60.92 38.771-38.773 60.666-91.288 60.918-146.121l0.96-0.959zM800.64 752c0 28.481-8.445 56.321-24.269 80.002-15.821 23.681-38.314 42.138-64.624 53.037-26.314 10.899-55.267 13.75-83.2 8.193s-53.594-19.271-73.731-39.41c-20.138-20.139-33.853-45.796-39.408-73.729-5.558-27.933-2.704-56.889 8.192-83.201 10.899-26.312 29.357-48.802 53.037-64.624 23.68-15.824 51.523-24.269 80.003-24.269 18.922 0.083 37.642 3.904 55.085 11.242s33.264 18.051 46.554 31.52c13.29 13.469 23.789 29.431 30.896 46.969 7.104 17.538 10.675 36.306 10.506 55.228l0.96-0.959zM715.84 840h-96c-3.782 0-7.526-0.746-11.021-2.193s-6.669-3.568-9.344-6.242c-2.675-2.674-4.797-5.85-6.243-9.344s-2.192-7.239-2.192-11.021c0-3.782 0.746-7.527 2.192-11.022s3.568-6.667 6.243-9.342c2.675-2.674 5.85-4.797 9.344-6.244s7.238-2.191 11.021-2.191h26.56l-69.12-69.121c-5.373-5.397-8.39-12.704-8.39-20.32s3.018-14.921 8.39-20.318c2.589-2.745 5.715-4.93 9.181-6.416 3.469-1.486 7.206-2.244 10.979-2.225 3.818 0.012 7.59 0.78 11.107 2.264s6.701 3.652 9.373 6.377l69.12 69.119v-25.92c0-7.638 3.034-14.964 8.435-20.365s12.726-8.436 20.365-8.436c7.638 0 14.963 3.035 20.365 8.436s8.435 12.727 8.435 20.365v96c0.045 3.891-0.698 7.752-2.186 11.348s-3.69 6.851-6.47 9.572c-2.781 2.722-6.086 4.852-9.712 6.262-3.629 1.409-7.504 2.068-11.392 1.938l0.96-0.959z" />
<glyph unicode="&#xe907;" glyph-name="keep-plus-l" d="M512.96 521.28c19.958-12.563 41.475-22.458 64-29.44v-331.84c-0.016-6.032-1.738-11.936-4.966-17.030-3.226-5.094-7.827-9.174-13.274-11.77-4.291-2.077-8.992-3.171-13.76-3.2-7.478-0.016-14.723 2.589-20.48 7.36l-135.68 110.72c-5.725 4.707-12.909 7.28-20.32 7.28s-14.595-2.573-20.32-7.28l-135.68-110.72c-4.683-3.827-10.355-6.253-16.358-6.989s-12.092 0.246-17.561 2.829c-5.505 2.547-10.173 6.608-13.459 11.709-3.286 5.098-5.056 11.024-5.101 17.091v416c0 25.459 10.115 49.878 28.118 67.882s42.421 28.117 67.882 28.117h139.84c6.982-22.526 16.877-44.041 29.44-63.999h-169.28c-8.487 0-16.626-3.37-22.627-9.373-6.001-6-9.373-14.141-9.373-22.627v-348.8l83.2 68.16c17.177 14.122 38.723 21.837 60.96 21.837s43.782-7.715 60.96-21.837l83.52-68.16 0.32 294.080zM384.96 751.999c0 5.44 0 10.88 0 16h-39.36c-19.805-0.056-39.11-6.236-55.266-17.693s-28.372-27.633-34.974-46.307h133.12c-2.787 15.852-4.288 31.905-4.48 48h0.96zM608.96 484.48v-240.64c2.97-5.949 7.533-10.957 13.184-14.461s12.166-5.366 18.816-5.379c4.736-0.003 9.424 0.979 13.76 2.88 5.302 2.522 9.808 6.451 13.024 11.36 3.219 4.912 5.021 10.611 5.216 16.48v226.24c-5.12 0-10.56 0-16 0-16.39-0.176-32.765 0.998-48.96 3.52h0.96zM864.96 751.999c0-41.139-12.198-81.353-35.053-115.557-22.858-34.208-55.341-60.864-93.347-76.608-38.010-15.744-79.83-19.862-120.179-11.837-40.346 8.026-77.411 27.834-106.499 56.925-29.088 29.088-48.899 66.151-56.925 106.499s-3.907 82.171 11.837 120.178c15.744 38.007 42.403 70.492 76.608 93.348s74.419 35.053 115.558 35.053c54.998-0.254 107.658-22.28 146.458-61.26s60.582-91.741 60.582-146.74h0.96zM800.96 751.999c0 28.481-8.445 56.323-24.269 80.004-15.821 23.681-38.314 42.136-64.624 53.035-26.314 10.899-55.267 13.752-83.2 8.195s-53.59-19.271-73.731-39.41c-20.138-20.139-33.853-45.797-39.408-73.731s-2.704-56.887 8.195-83.199c10.899-26.312 29.354-48.802 53.034-64.625 23.683-15.824 51.523-24.269 80.003-24.269 38.051 0.17 74.48 15.424 101.296 42.421s41.83 63.527 41.744 101.578h0.96zM719.68 783.999h-32v32c0 8.487-3.373 16.628-9.373 22.629s-14.141 9.371-22.627 9.371c-8.486 0-16.627-3.37-22.627-9.371s-9.373-14.142-9.373-22.629v-32h-32c-8.486 0-16.627-3.37-22.627-9.371s-9.373-14.142-9.373-22.629c0-8.487 3.373-16.626 9.373-22.627s14.141-9.373 22.627-9.373h32v-32c0-8.487 3.373-16.626 9.373-22.627s14.141-9.373 22.627-9.373c8.486 0 16.627 3.372 22.627 9.373s9.373 14.14 9.373 22.627v32h32c8.486 0 16.627 3.372 22.627 9.373s9.373 14.14 9.373 22.627c0 8.487-3.373 16.628-9.373 22.629s-14.141 9.371-22.627 9.371z" />
<glyph unicode="&#xe908;" glyph-name="keep-selected-l" d="M672.781 768h-230.832c-19.766-0.371-38.963-6.67-55.088-18.079s-28.435-27.397-35.322-45.882h240.771c29.197 0.6 57.44-10.375 78.538-30.519 21.094-20.144 33.318-47.811 33.994-76.934v-351.782c2.867-6.054 7.408-11.168 13.085-14.736 5.68-3.568 12.262-5.446 18.973-5.414 4.752-0.070 9.462 0.912 13.786 2.88 5.312 2.518 9.824 6.448 13.050 11.354 3.222 4.909 5.030 10.605 5.226 16.467v420.543c-0.25 12.348-2.938 24.526-7.904 35.838-4.97 11.312-12.128 21.537-21.059 30.090s-19.462 15.268-30.995 19.759c-11.536 4.491-23.843 6.672-36.221 6.417zM641.683 128.394c-7.453-0.106-14.707 2.384-20.518 7.037l-134.973 110.97c-5.738 4.704-12.931 7.277-20.358 7.277-7.424 0-14.621-2.573-20.358-7.277l-135.933-110.97c-4.706-3.91-10.436-6.397-16.513-7.158-6.077-0.765-12.246 0.224-17.777 2.848s-10.192 6.774-13.433 11.958c-3.241 5.184-4.926 11.187-4.855 17.296v415.744c0 25.446 10.134 49.846 28.172 67.84 18.037 17.992 42.5 28.1 68.007 28.1h224.419c25.51 0 49.974-10.108 68.010-28.1 18.038-17.994 28.17-42.394 28.17-67.84v-415.744c0.045-6.083-1.651-12.051-4.886-17.206-3.238-5.155-7.878-9.28-13.386-11.898-4.355-1.866-9.046-2.842-13.786-2.877z" />
<glyph unicode="&#xe909;" glyph-name="keep-selected-minus-l" d="M388.16 704.318h-133.12c6.602 18.674 18.818 34.849 34.974 46.307s35.461 17.638 55.266 17.693h39.36c0-5.12 0-10.56 0-16-0.125-16.069 1.053-32.121 3.52-48zM395.84 672.318h-139.84c-25.461 0-49.878-10.114-67.882-28.117s-28.118-42.422-28.118-67.884v-416c0.046-6.064 1.814-11.99 5.1-17.091 3.286-5.098 7.955-9.158 13.46-11.706 5.469-2.582 11.558-3.565 17.561-2.829s11.676 3.162 16.358 6.989l135.68 110.72c5.725 4.704 12.909 7.28 20.32 7.28s14.595-2.576 20.32-7.28l135.68-110.72c5.757-4.771 13.002-7.376 20.48-7.363 4.768 0.029 9.469 1.123 13.76 3.203 5.446 2.592 10.048 6.672 13.274 11.77 3.229 5.094 4.95 10.998 4.966 17.027v330.883c-42.79 12.998-81.712 36.362-113.309 68.013-31.594 31.651-54.886 70.611-67.811 113.426v-0.32zM607.68 484.48v-240.64c2.97-5.949 7.533-10.957 13.184-14.461s12.166-5.366 18.816-5.379c4.736-0.003 9.421 0.976 13.76 2.88 5.302 2.518 9.808 6.451 13.024 11.363 3.219 4.909 5.021 10.608 5.216 16.477v226.24c-5.12 0-10.56 0-16 0-16.077-0.019-32.131 1.264-48 3.84v-0.32zM863.68 752c0-41.139-12.198-81.353-35.053-115.558-22.858-34.205-55.341-60.867-93.35-76.608-38.006-15.744-79.827-19.862-120.176-11.837s-77.411 27.837-106.499 56.925c-29.088 29.088-48.899 66.15-56.925 106.498s-3.907 82.171 11.837 120.178c15.741 38.007 42.403 70.492 76.608 93.348s74.419 35.055 115.558 35.055c55.11 0 107.968-21.87 146.966-60.809s60.947-91.764 61.034-146.873v-0.318zM799.68 752c0 28.481-8.445 56.321-24.269 80.002-15.821 23.681-38.314 42.136-64.624 53.035-26.314 10.899-55.267 13.752-83.2 8.195s-53.59-19.271-73.731-39.41c-20.138-20.139-33.853-45.797-39.408-73.731-5.558-27.933-2.704-56.887 8.195-83.199 10.896-26.312 29.354-48.802 53.034-64.624 23.68-15.824 51.523-24.269 80.003-24.269 18.95-0.042 37.722 3.664 55.232 10.906s33.414 17.875 46.8 31.29c13.382 13.414 23.984 29.342 31.184 46.869 7.203 17.527 10.867 36.305 10.784 55.254v-0.318zM718.4 784h-128c-8.486 0-16.627-3.372-22.627-9.373s-9.373-14.14-9.373-22.627c0-8.487 3.373-16.628 9.373-22.629s14.141-9.371 22.627-9.371h128c8.486 0 16.627 3.37 22.627 9.371s9.373 14.142 9.373 22.629c0 8.487-3.373 16.626-9.373 22.627s-14.141 9.373-22.627 9.373z" />
<glyph unicode="&#xe90a;" glyph-name="arrow-accordion-s" d="M832 192c26.368 0 41.421 30.106 25.6 51.2l-320 426.667c-12.8 17.066-38.4 17.066-51.2 0l-320-426.667c-15.821-21.094-0.769-51.2 25.6-51.2h640z" />
<glyph unicode="&#xe90b;" glyph-name="arrow-play-s" d="M710.758 476.621c23.584-11.793 23.584-45.45 0-57.243l-408.447-204.223c-21.277-10.637-46.311 4.832-46.311 28.621v408.447c0 23.788 25.034 39.26 46.311 28.622l408.447-204.223z" />
<glyph unicode="&#xe90c;" glyph-name="arrow-s" d="M448 211.2c-19.2 0-32 6.4-44.8 19.2-25.6 25.6-25.6 64 0 89.6l134.4 134.4-134.4 140.8c-25.6 25.6-25.6 64 0 89.6s64 25.6 89.6 0l179.2-179.2c25.6-25.6 25.6-64 0-89.6l-179.2-179.2c-12.8-19.2-25.6-25.6-44.8-25.6z" />
<glyph unicode="&#xe90d;" glyph-name="cart-s" d="M494.444 256h262.376c25.619-0.077 50.675 7.501 71.942 21.76 21.261 14.259 37.766 34.541 47.373 58.24l71.942 250.188c7.891 19.46 10.861 40.557 8.653 61.434s-9.53 40.889-21.318 58.277c-11.789 17.388-27.68 31.618-46.278 41.434s-39.334 14.918-60.371 14.856h-475.129l-13.782 30.132c-11.483 30.462-32.004 56.706-58.824 75.231s-58.67 28.449-91.29 28.449h-64.149c-17.013 0-33.325-6.744-45.356-18.746s-18.794-28.28-18.794-45.254c0-16.974 6.763-33.252 18.794-45.254s28.342-18.746 45.356-18.746h64.149c6.592-0.003 13.023-2.033 18.418-5.812s9.497-9.124 11.738-15.309l154.593-408.32c9.24-24.28 25.668-45.176 47.094-59.922s46.836-22.643 72.865-22.637zM416 0c53.020 0 96 42.982 96 96s-42.98 96-96 96c-53.020 0-96-42.982-96-96s42.98-96 96-96zM802.17 0c53.024 0 96 42.982 96 96s-42.976 96-96 96c-53.018 0-96-42.982-96-96s42.982-96 96-96z" />
<glyph unicode="&#xe90e;" glyph-name="info-s" d="M512-64c-281.6 0-512 230.4-512 512s230.4 512 512 512 512-230.4 512-512-230.4-512-512-512zM512 832c-211.2 0-384-172.8-384-384s172.8-384 384-384 384 172.8 384 384-172.8 384-384 384zM512 512v0c38.4 0 64-25.6 64-64v-192c0-38.4-25.6-64-64-64v0c-38.4 0-64 25.6-64 64v192c0 38.4 25.6 64 64 64zM576 640c0-35.346-28.654-64-64-64s-64 28.654-64 64c0 35.346 28.654 64 64 64s64-28.654 64-64z" />
<glyph unicode="&#xe90f;" glyph-name="keep-s" d="M672 896h-319.999c-42.435 0-83.131-16.851-113.137-46.844s-46.863-70.673-46.863-113.089v-671.721c-0.074-12.704 3.64-25.146 10.668-35.738 7.028-10.586 17.049-18.848 28.789-23.718s24.669-6.138 37.133-3.642c12.464 2.502 23.9 8.653 32.852 17.677l165.121 165.69c5.949 5.997 13.025 10.758 20.824 14.003s16.164 4.922 24.614 4.922c8.449 0 16.814-1.677 24.613-4.922s14.879-8.006 20.828-14.003l165.124-165.69c5.978-5.933 13.069-10.624 20.864-13.805s16.147-4.8 24.57-4.749c8.32-0.102 16.582 1.421 24.32 4.48 11.789 4.838 21.869 13.088 28.934 23.686 7.072 10.605 10.81 23.066 10.746 35.808v671.721c0 21.003-4.141 41.801-12.179 61.205s-19.827 37.033-34.682 51.884c-14.861 14.852-32.493 26.632-51.91 34.669-19.411 8.038-40.218 12.175-61.229 12.175z" />
<glyph unicode="&#xe910;" glyph-name="minus-s" d="M256 448c0 35.346 28.654 64 64 64h384c35.347 0 64-28.654 64-64s-28.653-64-64-64h-384c-35.346 0-64 28.654-64 64z" />
<glyph unicode="&#xe911;" glyph-name="plus-s" d="M576 640c0 35.346-28.654 64-64 64s-64-28.654-64-64v-128h-128c-35.346 0-64-28.654-64-64s28.654-64 64-64h128v-128c0-35.347 28.654-64 64-64s64 28.653 64 64v128h128c35.347 0 64 28.654 64 64s-28.653 64-64 64h-128v128z" />
<glyph unicode="&#xe912;" glyph-name="purchased-s" d="M514.554 896c-50.836 0-99.588-20.227-135.535-56.234s-56.144-84.844-56.144-135.766v-64h-86.255c-15.894 0.080-31.246-5.779-43.060-16.429s-19.244-25.331-20.833-41.172l-44.086-441.599c-1.791-17.856 0.184-35.885 5.799-52.928 5.615-17.037 14.742-32.698 26.791-45.971 12.050-13.28 26.755-23.872 43.155-31.091 16.4-7.213 34.129-10.899 52.042-10.81h511.144c17.914-0.090 35.648 3.597 52.045 10.81 16.403 7.219 31.104 17.811 43.155 31.091 12.045 13.274 21.178 28.934 26.79 45.971 5.613 17.043 7.59 35.072 5.798 52.928l-44.090 441.599c-1.587 15.841-9.011 30.521-20.826 41.172s-27.168 16.509-43.066 16.429h-83.059v64c0 50.922-20.192 99.759-56.141 135.766s-84.703 56.234-135.54 56.234h1.915zM450.661 640v64c0 16.974 6.733 33.247 18.715 45.25s28.233 18.75 45.178 18.75c16.946 0 33.2-6.748 45.183-18.75s18.71-28.276 18.71-45.25v-64h-127.786zM642.342 480c-12.71 0-24.9 5.053-33.886 14.054s-14.035 21.215-14.035 33.946c0 12.73 5.048 24.936 14.035 33.937s21.176 14.063 33.886 14.063c12.71 0 24.896-5.060 33.882-14.063s14.035-21.207 14.035-33.937c0-12.73-5.050-24.943-14.035-33.946s-21.171-14.054-33.882-14.054zM386.768 480c-12.709 0-24.898 5.053-33.885 14.054s-14.035 21.215-14.035 33.946c0 12.73 5.048 24.936 14.035 33.937s21.176 14.063 33.885 14.063c12.709 0 24.898-5.060 33.885-14.063s14.035-21.207 14.035-33.937c0-12.73-5.048-24.943-14.035-33.946s-21.176-14.054-33.885-14.054z" />
<glyph unicode="&#xe913;" glyph-name="share-s" d="M1024 187.622c0-123.168-177.28-187.622-352-187.622h-30.72c36.486 16.454 67.731 42.605 90.304 75.59 22.579 32.979 35.622 71.52 37.696 111.398-5.037 67.718-26.925 133.122-63.693 190.285-36.762 57.164-87.242 104.284-146.867 137.097 41.844 48.331 64.865 110.052 64.865 173.903s-23.021 125.572-64.865 173.903c33.421 22.016 72.585 33.775 112.639 33.823 47.616-0.141 93.741-16.568 130.669-46.537 36.934-29.969 62.438-71.665 72.25-118.125s3.341-94.871-18.33-137.147c-21.677-42.276-57.235-75.859-100.749-95.137 142.080-44.035 268.8-179.963 268.8-311.432zM437.121 497.14c43.437 19.426 78.877 53.122 100.402 95.462s27.835 90.762 17.873 137.181c-9.962 46.42-35.59 88.027-72.607 117.876s-83.183 46.132-130.789 46.132c-47.606 0-93.77-16.284-130.787-46.132s-62.646-71.456-72.607-117.876c-9.962-46.419-3.652-94.841 17.873-137.181s56.965-76.036 100.402-95.462c-140.8-41.482-266.881-178.689-266.881-309.517 0-130.822 177.28-187.622 352-187.622s352 63.814 352 187.622c0 123.808-126.079 268.036-266.879 309.517z" />
<glyph unicode="&#xe914;" glyph-name="arrow-back-to-top" d="M807.125 166.37l-255.889 597.031c-3.277 7.693-8.742 14.252-15.718 18.863s-15.155 7.069-23.518 7.069c-8.363 0-16.538-2.459-23.514-7.069s-12.442-11.17-15.723-18.863l-255.886-597.031c-3.694-8.486-4.528-17.941-2.374-26.944s7.179-17.058 14.314-22.95c7.673-6.357 17.331-9.83 27.296-9.809 8.36 0.064 16.517 2.586 23.456 7.249l208.977 139.025c7.006 4.672 15.245 7.168 23.667 7.168 8.427 0 16.661-2.496 23.671-7.168l208.546-139.025c7.616-5.073 16.661-7.565 25.801-7.104s17.886 3.849 24.951 9.664c7.138 5.892 12.16 13.948 14.31 22.95 2.155 9.003 1.323 18.458-2.368 26.944z" />
<glyph unicode="&#xe915;" glyph-name="arrow-back" d="M981.124 490.829h-619.515l61.865 154.537c3.368 8.369 3.999 17.589 1.802 26.339s-7.102 16.579-14.021 22.364-15.494 9.228-24.489 9.835c-8.996 0.607-17.951-1.652-25.583-6.455l-341.333-213.45c-6.080-3.849-11.092-9.178-14.563-15.484s-5.286-13.389-5.286-20.587c0-7.202 1.816-14.285 5.286-20.591s8.482-11.635 14.563-15.484l341.333-213.449c6.79-4.211 14.621-6.43 22.609-6.404 9.969-0.021 19.631 3.452 27.307 9.818 6.938 5.764 11.876 13.577 14.099 22.323 2.224 8.742 1.618 17.967-1.724 26.342l-61.865 154.965h619.515c11.315 0 22.17 4.497 30.174 12.506 8 8.004 12.493 18.863 12.493 30.187 0 11.319-4.493 22.178-12.493 30.182-8.004 8.009-18.859 12.506-30.174 12.506z" />
<glyph unicode="&#xe916;" glyph-name="arrow" d="M426.842 192c-5.604-0.034-11.161 1.045-16.351 3.166-5.19 2.125-9.91 5.252-13.89 9.207-3.993 3.968-7.162 8.687-9.324 13.884-2.163 5.201-3.276 10.778-3.276 16.41s1.113 11.209 3.276 16.41c2.162 5.197 5.332 9.916 9.324 13.884l183.163 183.040-183.163 183.040c-8.021 8.034-12.527 18.931-12.527 30.293s4.506 22.259 12.527 30.293c8.021 8.034 18.899 12.548 30.241 12.548 11.345 0 22.225-4.514 30.246-12.548l212.979-213.333c3.994-3.968 7.159-8.687 9.323-13.884 2.163-5.201 3.277-10.778 3.277-16.41s-1.114-11.209-3.277-16.41c-2.163-5.197-5.329-9.916-9.323-13.884l-212.979-213.333c-3.981-3.955-8.704-7.083-13.892-9.207-5.188-2.121-10.748-3.2-16.354-3.166z" />
<glyph unicode="&#xe917;" glyph-name="arrow-play" d="M787.221 485.188c29.001-16.311 29.001-58.065 0-74.377l-552.97-311.044c-28.442-16-63.584 4.553-63.584 37.184v622.095c0 32.633 35.143 53.186 63.584 37.187l552.97-311.046z" />
<glyph unicode="&#xe918;" glyph-name="cart-selected" d="M865.621 776.493c17.523-8.503 32.875-20.893 44.885-36.226 11.895-14.857 20.326-32.179 24.683-50.705 4.352-18.526 4.523-37.789 0.495-56.389l-38.404-154.453c-8.094-32.333-26.769-61.026-53.060-81.515-26.287-20.493-58.675-31.599-92.006-31.552h-258.56c-3.55-0.235-7.113-0.235-10.667 0v-2.987c4.429-12.348 12.523-23.049 23.194-30.673 10.675-7.625 23.424-11.81 36.54-11.994h225.28c11.315 0 22.17-4.497 30.174-12.497 8-8 12.493-18.854 12.493-30.17s-4.493-22.17-12.493-30.17c-8.004-8-18.859-12.497-30.174-12.497h-225.28c-30.165 0.081-59.605 9.293-84.433 26.432-24.828 17.135-43.885 41.391-54.659 69.568l-166.401 430.934c-3.026 8.098-8.438 15.087-15.523 20.039s-15.511 7.636-24.157 7.694h-69.547c-11.316 0-22.168 4.495-30.169 12.497s-12.497 18.854-12.497 30.17c0 11.316 4.496 22.168 12.497 30.17s18.853 12.497 30.169 12.497h69.547c25.908-0.023 51.198-7.907 72.529-22.61s37.7-35.533 46.94-59.736v-2.987h492.371c19.477 0.054 38.711-4.337 56.235-12.841zM463.791 21.333c47.13 0 85.333 38.204 85.333 85.333s-38.204 85.333-85.333 85.333c-47.127 0-85.332-38.204-85.332-85.333s38.205-85.333 85.332-85.333zM762.458 21.333c47.13 0 85.333 38.204 85.333 85.333s-38.204 85.333-85.333 85.333c-47.13 0-85.333-38.204-85.333-85.333s38.204-85.333 85.333-85.333z" />
<glyph unicode="&#xe919;" glyph-name="cart" d="M865.613 774.985c17.532-8.486 32.892-20.851 44.911-36.154 11.725-14.592 20.1-31.575 24.525-49.749s4.796-37.095 1.088-55.427l-38.421-154.146c-8.098-32.269-26.786-60.902-53.090-81.353s-58.705-31.535-92.053-31.488h-258.701c-3.554-0.235-7.117-0.235-10.671 0v-2.978c4.433-12.326 12.527-23.006 23.206-30.613s23.437-11.785 36.561-11.972h225.399c11.319 0 22.178-4.484 30.182-12.471 8.009-7.983 12.506-18.816 12.506-30.11 0-11.29-4.497-22.123-12.506-30.11-8.004-7.983-18.863-12.471-30.182-12.471h-225.399c-30.187 0.081-59.639 9.276-84.48 26.381-24.845 17.101-43.91 41.306-54.69 69.427l-166.49 430.076c-3.027 8.082-8.445 15.056-15.534 19.999s-15.517 7.621-24.167 7.679h-69.584c-11.322 0-22.18 4.486-30.186 12.472s-12.504 18.816-12.504 30.11c0 11.293 4.498 22.124 12.504 30.109s18.864 12.472 30.186 12.472h69.584c25.921-0.023 51.225-7.892 72.567-22.565s37.717-35.462 46.963-59.617l116.971-302.756c4.433-12.322 12.527-23.002 23.206-30.609 10.684-7.612 23.437-11.785 36.557-11.972h256.137c14.319 0.038 28.22 4.83 39.505 13.619s19.315 21.077 22.822 34.927l38.421 154.144c1.6 6.285 1.737 12.851 0.405 19.197s-4.1 12.305-8.090 17.423c-4.019 5.075-9.148 9.169-14.989 11.973-5.845 2.804-12.25 4.243-18.735 4.208h-349.201c-11.319 0-22.178 4.487-30.182 12.472-8.008 7.985-12.506 18.816-12.506 30.109s4.498 22.124 12.506 30.109c8.004 7.985 18.863 12.472 30.182 12.472h349.201c19.486 0.054 38.733-4.329 56.265-12.815zM467.827 21.333c47.155 0 85.38 38.131 85.38 85.167 0 47.031-38.225 85.163-85.38 85.163s-85.379-38.131-85.379-85.163c0-47.036 38.225-85.167 85.379-85.167zM766.66 21.333c47.155 0 85.38 38.131 85.38 85.167 0 47.031-38.225 85.163-85.38 85.163s-85.38-38.131-85.38-85.163c0-47.036 38.225-85.167 85.38-85.167z" />
<glyph unicode="&#xe91a;" glyph-name="childIndex-selected" d="M213.333 789.333c-11.313 0-22.165-4.495-30.169-12.498s-12.498-18.855-12.498-30.169v-42.667c0-23.564-19.103-42.667-42.667-42.667s-42.667 19.103-42.667 42.667v42.667c0 33.95 13.489 66.505 37.492 90.508s56.559 37.492 90.508 37.492h42.667c23.564 0 42.667-19.103 42.667-42.667s-19.103-42.667-42.667-42.667h-42.667zM725.333 832c0 23.564 19.102 42.667 42.667 42.667h42.667c33.95 0 66.505-13.489 90.509-37.492s37.491-56.559 37.491-90.508v-42.667c0-23.564-19.102-42.667-42.667-42.667s-42.667 19.103-42.667 42.667v42.667c0 11.313-4.493 22.165-12.497 30.169s-18.854 12.498-30.17 12.498h-42.667c-23.565 0-42.667 19.103-42.667 42.667zM170.667 192c0 23.565-19.103 42.667-42.667 42.667s-42.667-19.102-42.667-42.667v-42.667c0-33.95 13.489-66.505 37.492-90.509s56.559-37.491 90.508-37.491h42.667c23.564 0 42.667 19.102 42.667 42.667s-19.103 42.667-42.667 42.667h-42.667c-11.313 0-22.165 4.493-30.169 12.497s-12.498 18.854-12.498 30.17v42.667zM896 234.667c23.565 0 42.667-19.102 42.667-42.667v-42.667c0-33.95-13.487-66.505-37.491-90.509s-56.559-37.491-90.509-37.491h-42.667c-23.565 0-42.667 19.102-42.667 42.667s19.102 42.667 42.667 42.667h42.667c11.315 0 22.165 4.493 30.17 12.497s12.497 18.854 12.497 30.17v42.667c0 23.565 19.102 42.667 42.667 42.667zM334.219 714.070c52.624 35.162 114.49 53.93 177.781 53.93 84.868 0 166.263-33.715 226.274-93.727s93.726-141.405 93.726-226.273c0-63.292-18.769-125.158-53.931-177.779-35.162-52.625-85.137-93.641-143.612-117.862-58.47-24.218-122.812-30.558-184.887-18.21s-119.091 42.825-163.843 87.578-75.231 101.769-87.578 163.844c-12.347 62.076-6.009 126.417 18.211 184.888s65.236 108.45 117.859 143.612zM391.19 535.703c-4.688-7.016-7.19-15.264-7.19-23.703 0-11.315 4.496-22.17 12.497-30.17s18.854-12.497 30.169-12.497c8.439 0 16.687 2.5 23.701 7.189 7.019 4.689 12.489 11.354 15.718 19.149s4.075 16.375 2.428 24.653c-1.647 8.273-5.713 15.878-11.678 21.845-5.969 5.967-13.568 10.031-21.845 11.677s-16.856 0.803-24.652-2.427c-7.796-3.229-14.46-8.7-19.148-15.716zM569.259 298.633c17.92 8.405 33.771 20.655 46.421 35.874 3.746 3.26 6.737 7.296 8.759 11.831 2.027 4.535 3.034 9.455 2.961 14.421-0.073 4.962-1.229 9.856-3.383 14.327-2.159 4.471-5.269 8.418-9.109 11.567s-8.316 5.419-13.124 6.656c-4.813 1.237-9.835 1.412-14.716 0.512-4.881-0.905-9.51-2.863-13.559-5.734-4.049-2.876-7.42-6.601-9.882-10.914-6.447-7.343-14.387-13.231-23.292-17.263-8.9-4.032-18.56-6.114-28.335-6.114s-19.435 2.082-28.335 6.114c-8.905 4.032-16.845 9.92-23.292 17.263-2.462 4.314-5.833 8.038-9.882 10.914-4.049 2.871-8.678 4.83-13.559 5.734-4.881 0.9-9.903 0.725-14.713-0.512s-9.288-3.507-13.128-6.656-6.95-7.095-9.107-11.567c-2.158-4.471-3.312-9.365-3.386-14.327-0.073-4.966 0.937-9.886 2.961-14.421s5.015-8.572 8.76-11.831c12.652-15.219 28.501-27.469 46.421-35.874 17.916-8.405 37.466-12.762 57.259-12.762s39.343 4.356 57.259 12.762zM573.632 476.523c7.014-4.689 15.262-7.189 23.701-7.189 11.315 0 22.17 4.497 30.17 12.497s12.497 18.854 12.497 30.17c0 8.439-2.5 16.687-7.189 23.703s-11.354 12.487-19.149 15.716c-7.795 3.229-16.375 4.073-24.653 2.427-8.273-1.646-15.876-5.71-21.845-11.677-5.965-5.967-10.031-13.572-11.678-21.845-1.647-8.277-0.802-16.858 2.428-24.653s8.7-14.46 15.718-19.149z" />
<glyph unicode="&#xe91b;" glyph-name="childIndex" d="M183.165 776.835c8.003 8.003 18.855 12.498 30.169 12.498h42.667c23.564 0 42.667 19.103 42.667 42.667s-19.103 42.667-42.667 42.667h-42.667c-33.95 0-66.505-13.489-90.508-37.492s-37.492-56.559-37.492-90.508v-42.667c0-23.564 19.103-42.667 42.667-42.667s42.667 19.103 42.667 42.667v42.667c0 11.313 4.495 22.165 12.498 30.169zM768 874.667c-23.565 0-42.667-19.103-42.667-42.667s19.102-42.667 42.667-42.667h42.667c11.315 0 22.165-4.495 30.17-12.498s12.497-18.855 12.497-30.169v-42.667c0-23.564 19.102-42.667 42.667-42.667s42.667 19.103 42.667 42.667v42.667c0 33.95-13.487 66.505-37.491 90.508s-56.559 37.492-90.509 37.492h-42.667zM128 234.667c23.564 0 42.667-19.102 42.667-42.667v-42.667c0-11.315 4.495-22.165 12.498-30.17s18.855-12.497 30.169-12.497h42.667c23.564 0 42.667-19.102 42.667-42.667s-19.103-42.667-42.667-42.667h-42.667c-33.95 0-66.505 13.487-90.508 37.491s-37.492 56.559-37.492 90.509v42.667c0 23.565 19.103 42.667 42.667 42.667zM938.667 192c0 23.565-19.102 42.667-42.667 42.667s-42.667-19.102-42.667-42.667v-42.667c0-11.315-4.493-22.165-12.497-30.17s-18.854-12.497-30.17-12.497h-42.667c-23.565 0-42.667-19.102-42.667-42.667s19.102-42.667 42.667-42.667h42.667c33.95 0 66.505 13.487 90.509 37.491s37.491 56.559 37.491 90.509v42.667zM512 682.667c-129.603 0-234.667-105.064-234.667-234.667 0-129.604 105.064-234.667 234.667-234.667s234.667 105.062 234.667 234.667c0 129.603-105.062 234.667-234.667 234.667zM192 448c0 176.731 143.269 320 320 320s320-143.269 320-320c0-176.73-143.27-320-320-320s-320 143.27-320 320zM469.333 512c0-23.565-19.102-42.667-42.667-42.667s-42.667 19.102-42.667 42.667c0 23.564 19.103 42.667 42.667 42.667s42.667-19.103 42.667-42.667zM597.333 469.333c23.565 0 42.667 19.102 42.667 42.667s-19.102 42.667-42.667 42.667c-23.565 0-42.667-19.103-42.667-42.667s19.102-42.667 42.667-42.667zM460.668 378.423c-12.002 14.537-33.515 16.593-48.052 4.591-14.538-11.998-16.595-33.515-4.593-48.051 12.65-15.326 28.53-27.661 46.506-36.13 17.975-8.474 37.598-12.864 57.472-12.864 19.87 0 39.497 4.39 57.472 12.864 17.971 8.469 33.852 20.804 46.502 36.13 12.002 14.537 9.946 36.053-4.591 48.051-14.541 12.002-36.053 9.946-48.055-4.591-6.242-7.565-14.084-13.658-22.959-17.839s-18.56-6.349-28.369-6.349c-9.809 0-19.499 2.167-28.373 6.349s-16.713 10.274-22.959 17.839z" />
<glyph unicode="&#xe91c;" glyph-name="close" d="M783.531 659.19c16.661 16.663 16.661 43.677 0 60.34-16.666 16.663-43.678 16.663-60.343 0l-211.187-211.19-211.189 211.19c-16.662 16.663-43.677 16.663-60.34 0s-16.663-43.677 0-60.34l211.19-211.19-211.19-211.187c-16.663-16.666-16.663-43.678 0-60.339 16.662-16.666 43.677-16.666 60.34 0l211.189 211.187 211.187-211.187c16.666-16.666 43.678-16.666 60.343 0 16.661 16.661 16.661 43.674 0 60.339l-211.191 211.187 211.191 211.19z" />
<glyph unicode="&#xe91d;" glyph-name="event-selected" d="M810.667 810.667h-106.667v21.333c0 11.316-4.497 22.168-12.497 30.169s-18.854 12.497-30.17 12.497c-11.315 0-22.17-4.496-30.17-12.497s-12.497-18.853-12.497-30.169v-21.333h-213.333v21.333c0 11.316-4.496 22.168-12.497 30.169s-18.853 12.497-30.169 12.497c-11.316 0-22.168-4.496-30.169-12.497s-12.497-18.853-12.497-30.169v-21.333h-106.667c-33.948 0-66.506-13.485-90.511-37.489s-37.489-56.563-37.489-90.511v-448c0-45.265 17.981-88.674 49.987-120.678 32.006-32.009 75.416-49.988 120.68-49.988h512c45.265 0 88.674 17.98 120.678 49.988 32.009 32.004 49.988 75.413 49.988 120.678v448c0 33.948-13.487 66.506-37.491 90.511s-56.563 37.489-90.509 37.489zM671.147 397.653l-159.573-170.667c-7.561-8.102-17.98-12.945-29.047-13.504-11.068-0.555-21.922 3.213-30.259 10.517l-96.852 85.333c-4.175 3.755-7.57 8.294-9.99 13.359s-3.818 10.56-4.115 16.166c-0.297 5.606 0.512 11.217 2.383 16.508 1.871 5.295 4.767 10.163 8.521 14.34 3.754 4.173 8.294 7.569 13.36 9.988s10.558 3.819 16.164 4.113c5.606 0.299 11.217-0.512 16.51-2.381 5.293-1.873 10.164-4.766 14.339-8.521l65.281-58.453 130.987 139.947c7.893 7.386 18.295 11.503 29.103 11.516 10.812 0.009 21.222-4.083 29.133-11.447 7.91-7.369 12.727-17.468 13.483-28.25 0.751-10.782-2.62-21.449-9.425-29.845v1.28zM853.333 618.667h-682.667v64c0 11.316 4.496 22.168 12.497 30.169s18.853 12.497 30.169 12.497h106.667v-21.333c0-11.316 4.496-22.168 12.497-30.169s18.853-12.497 30.169-12.497c11.316 0 22.168 4.496 30.169 12.497s12.497 18.853 12.497 30.169v21.333h213.333v-21.333c0-11.316 4.497-22.168 12.497-30.169s18.854-12.497 30.17-12.497c11.315 0 22.17 4.496 30.17 12.497s12.497 18.853 12.497 30.169v21.333h106.667c11.315 0 22.17-4.496 30.17-12.497s12.497-18.853 12.497-30.169v-64z" />
<glyph unicode="&#xe91e;" glyph-name="event" d="M810.667 810.667h-106.667v21.333c0 11.316-4.497 22.168-12.497 30.169s-18.854 12.497-30.17 12.497c-11.315 0-22.17-4.496-30.17-12.497s-12.497-18.853-12.497-30.169v-21.333h-213.333v21.333c0 11.316-4.496 22.168-12.497 30.169s-18.853 12.497-30.169 12.497c-11.316 0-22.168-4.496-30.169-12.497s-12.497-18.853-12.497-30.169v-21.333h-106.667c-33.948 0-66.506-13.485-90.511-37.489s-37.489-56.563-37.489-90.511v-106.667c0-11.316 4.496-22.168 12.497-30.169s18.853-12.497 30.169-12.497h768c11.315 0 22.17 4.496 30.17 12.497s12.497 18.853 12.497 30.169v106.667c0 33.948-13.487 66.506-37.491 90.511s-56.563 37.489-90.509 37.489zM853.333 618.667h-682.667v64c0 11.316 4.496 22.168 12.497 30.169s18.853 12.497 30.169 12.497h106.667v-21.333c0-11.316 4.496-22.168 12.497-30.169s18.853-12.497 30.169-12.497c11.316 0 22.168 4.496 30.169 12.497s12.497 18.853 12.497 30.169v21.333h213.333v-21.333c0-11.316 4.497-22.168 12.497-30.169s18.854-12.497 30.17-12.497c11.315 0 22.17 4.496 30.17 12.497s12.497 18.853 12.497 30.169v21.333h106.667c11.315 0 22.17-4.496 30.17-12.497s12.497-18.853 12.497-30.169v-64zM480.427 213.333c5.85 0.017 11.635 1.242 16.994 3.588 5.355 2.351 10.176 5.777 14.153 10.065l159.573 170.667c6.81 8.397 10.176 19.063 9.425 29.845-0.755 10.786-5.572 20.881-13.483 28.25s-18.321 11.456-29.129 11.443c-10.812-0.013-21.214-4.126-29.107-11.511l-130.987-139.947-65.281 58.453c-8.43 7.582-19.526 11.503-30.849 10.906-11.322-0.602-21.942-5.675-29.523-14.106s-11.504-19.529-10.904-30.848c0.6-11.324 5.674-21.943 14.104-29.525l96.852-85.333c7.586-7.326 17.621-11.58 28.16-11.947zM865.83 478.17c8 8 18.854 12.497 30.17 12.497s22.17-4.497 30.17-12.497c8-8 12.497-18.854 12.497-30.17v-213.333c0-45.265-17.98-88.674-49.988-120.678-32.004-32.009-75.413-49.988-120.678-49.988h-512c-45.264 0-88.673 17.98-120.68 49.988-32.006 32.004-49.987 75.413-49.987 120.678v213.333c0 11.315 4.496 22.17 12.497 30.17s18.853 12.497 30.169 12.497c11.316 0 22.168-4.497 30.169-12.497s12.497-18.854 12.497-30.17v-213.333c0-22.63 8.992-44.335 24.995-60.339s37.707-24.994 60.338-24.994h512c22.63 0 44.335 8.99 60.339 24.994s24.994 37.709 24.994 60.339v213.333c0 11.315 4.497 22.17 12.497 30.17z" />
<glyph unicode="&#xe91f;" glyph-name="faceSearch-searched" d="M362.771 519.253c23.564 0 42.667 19.103 42.667 42.667s-19.102 42.667-42.667 42.667c-23.564 0-42.667-19.102-42.667-42.667s19.103-42.667 42.667-42.667zM576.209 519.253c23.565 0 42.667 19.103 42.667 42.667s-19.102 42.667-42.667 42.667c-23.565 0-42.667-19.102-42.667-42.667s19.102-42.667 42.667-42.667zM581.342 434.773c-5.009 2.573-10.483 4.126-16.102 4.574-5.615 0.448-11.264-0.218-16.623-1.963-5.355-1.745-10.317-4.535-14.588-8.205-4.275-3.669-7.778-8.149-10.313-13.18-5.406-9.685-13.299-17.754-22.869-23.369-9.566-5.615-20.459-8.576-31.556-8.576-11.093 0-21.986 2.961-31.556 8.576-9.566 5.615-17.463 13.683-22.868 23.369-2.449 5.158-5.908 9.771-10.173 13.572-4.265 3.797-9.25 6.699-14.658 8.538-5.408 1.835-11.13 2.569-16.826 2.155s-11.252-1.967-16.338-4.565c-5.086-2.598-9.599-6.191-13.271-10.564s-6.427-9.438-8.104-14.895c-1.677-5.461-2.242-11.196-1.66-16.875 0.582-5.683 2.298-11.187 5.048-16.192 12.545-23.757 31.34-43.648 54.357-57.519s49.387-21.205 76.262-21.205c26.88 0 53.248 7.334 76.267 21.205 23.014 13.871 41.809 33.762 54.353 57.519 2.573 5.013 4.13 10.479 4.578 16.094s-0.218 11.264-1.967 16.619c-1.745 5.355-4.535 10.308-8.205 14.583-3.674 4.271-8.154 7.774-13.188 10.304zM725.632 616.534c-5.649 0.023-11.234 1.167-16.439 3.365-5.201 2.197-9.916 5.403-13.867 9.435l-85.376 85.333c-4.467 3.825-8.098 8.532-10.658 13.826-2.564 5.293-4.002 11.059-4.228 16.935s0.764 11.735 2.91 17.211c2.146 5.475 5.402 10.449 9.562 14.607s9.135 7.411 14.609 9.556c5.478 2.145 11.341 3.136 17.22 2.909s11.648-1.667 16.943-4.228c5.295-2.561 10.005-6.188 13.833-10.655l55.492-55.039 140.437 140.372c8 7.947 18.816 12.408 30.093 12.408s22.097-4.461 30.097-12.408c7.949-7.994 12.412-18.807 12.412-30.079s-4.463-22.087-12.412-30.081l-170.748-170.667c-7.881-8.039-18.62-12.639-29.879-12.8zM763.618 539.733c3.102-16.171 4.676-32.602 4.698-49.067 0-59.072-17.523-116.817-50.359-165.931-32.832-49.114-79.497-87.394-134.097-110.003-54.601-22.605-114.679-28.518-172.643-16.994-57.962 11.524-111.203 39.97-152.992 81.737-41.789 41.771-70.246 94.989-81.776 152.922-11.529 57.937-5.612 117.99 17.004 172.564s60.914 101.22 110.052 134.038c49.138 32.818 106.908 50.333 166.004 50.333 16.452-0.132 32.866-1.557 49.092-4.265 5.786 19.719 16.512 37.635 31.159 52.053 8.572 8.688 18.526 15.896 29.453 21.333-35.558 10.812-72.533 16.275-109.705 16.212-101.888 0-199.604-40.456-271.652-112.47s-112.523-169.687-112.523-271.529c0-101.845 40.476-199.518 112.523-271.531s169.764-112.469 271.652-112.469c58.513 0.073 116.215 13.653 168.614 39.68l106.287-106.24c5.926-5.965 12.979-10.692 20.745-13.918 7.765-3.221 16.094-4.873 24.503-4.855 12.655 0.009 25.024 3.772 35.546 10.803 10.517 7.031 18.714 17.024 23.556 28.71 4.843 11.691 6.11 24.55 3.644 36.958s-8.555 23.804-17.498 32.755l-90.069 91.733c70.404 71.625 109.939 167.962 110.131 268.373-0.213 34.91-5.094 69.635-14.515 103.253l-23.049-23.040c-15.095-14.64-33.57-25.336-53.786-31.146z" />
<glyph unicode="&#xe920;" glyph-name="faceSearch" d="M404.619 512.823c23.332 0 42.246 18.884 42.246 42.186 0 23.3-18.914 42.188-42.246 42.188s-42.244-18.888-42.244-42.188c0-23.302 18.914-42.186 42.244-42.186zM615.846 512.823c23.334 0 42.244 18.884 42.244 42.186 0 23.3-18.91 42.188-42.244 42.188-23.33 0-42.244-18.888-42.244-42.188 0-23.302 18.914-42.186 42.244-42.186zM510.234 313.694c-33.011-0.593-65.173 10.462-90.825 31.219-8.571 7.215-13.92 17.536-14.871 28.693s2.575 22.234 9.802 30.793c7.226 8.559 17.562 13.901 28.733 14.848 11.17 0.951 22.259-2.569 30.831-9.788 10.807-6.822 23.334-10.445 36.122-10.445s25.31 3.622 36.117 10.445c8.572 7.219 19.661 10.739 30.831 9.788 11.17-0.947 21.504-6.289 28.732-14.848s10.752-19.635 9.801-30.793c-0.947-11.157-6.298-21.478-14.869-28.693-25.451-20.826-57.506-31.898-90.402-31.219zM782.707 219.196c68.254 67.75 108.544 158.626 112.9 254.63 4.352 96.008-27.55 190.148-89.387 263.783-61.841 73.635-149.111 121.398-244.535 133.833-95.428 12.434-192.047-11.366-270.737-66.69s-133.71-138.137-154.169-232.045c-20.459-93.906-4.866-192.065 43.693-275.039 48.559-82.97 126.545-144.713 218.516-172.996s191.223-21.047 278.11 20.271l105.186-105.045c5.867-5.897 12.843-10.577 20.527-13.76 7.689-3.187 15.932-4.821 24.252-4.804 12.527 0.013 24.768 3.729 35.174 10.684 10.411 6.955 18.526 16.832 23.317 28.39 4.791 11.554 6.046 24.269 3.605 36.54-2.441 12.267-8.465 23.539-17.318 32.388l-89.135 89.86zM214.524 482.445c0 58.41 17.343 115.505 49.836 164.070s78.676 86.417 132.71 108.768c54.036 22.351 113.492 28.2 170.853 16.805s110.054-39.522 151.407-80.822c41.357-41.3 69.521-93.92 80.93-151.206s5.555-116.661-16.828-170.626c-22.383-53.961-60.284-100.083-108.911-132.531-48.631-32.452-105.805-49.771-164.288-49.771-78.426 0-153.642 31.113-209.098 86.498-55.456 55.381-86.612 130.496-86.612 208.815z" />
<glyph unicode="&#xe921;" glyph-name="hint" d="M510.865 831.947c-11.281 0-22.097 4.496-30.076 12.501-7.974 8.005-12.454 18.863-12.454 30.183v42.684c0 11.321 4.48 22.177 12.454 30.182 7.979 8.005 18.795 12.503 30.076 12.503s22.097-4.498 30.076-12.503c7.974-8.005 12.459-18.861 12.459-30.182v-42.684c0-11.321-4.484-22.179-12.459-30.183-7.979-8.005-18.795-12.501-30.076-12.501zM266.383 792.268c-7.495-0.030-14.864 1.928-21.362 5.676s-11.893 9.153-15.641 15.667l-21.266 37.135c-5.64 9.849-7.151 21.543-4.2 32.51s10.123 20.307 19.937 25.968c9.814 5.66 21.465 7.176 32.393 4.214s20.236-10.158 25.876-20.007l21.266-37.135c3.74-6.502 5.705-13.878 5.698-21.385s-1.987-14.88-5.74-21.373c-3.753-6.494-9.146-11.879-15.636-15.613s-13.845-5.685-21.326-5.655zM755.379 792.276c-7.479-0.030-14.839 1.92-21.325 5.655-6.49 3.734-11.883 9.12-15.637 15.613s-5.734 13.866-5.739 21.373c-0.009 7.507 1.958 14.884 5.696 21.385l21.265 37.135c5.641 9.849 14.95 17.045 25.877 20.007s22.579 1.446 32.393-4.214c9.813-5.66 16.986-15.001 19.938-25.968s1.438-22.661-4.198-32.509l-21.269-37.135c-3.746-6.514-9.143-11.919-15.637-15.667-6.498-3.748-13.871-5.705-21.363-5.676zM843.857 534.476c-20.032 73.204-63.467 137.78-123.622 183.805s-133.705 70.952-209.344 70.952c-75.644 0-149.196-24.927-209.35-70.952s-103.587-110.601-123.622-183.805c-5.092-20.078-7.522-40.741-7.228-61.456 1.539-81.446 30.801-159.906 82.924-222.353l12.757-17.924c4.584-11.375 6.758-23.582 6.38-35.849v-3.413c-0.555-21.862 5.364-43.401 17.008-61.884-7.909-12.834-12.172-27.588-12.331-42.679 0.33-26.923 9.108-53.056 25.088-74.684 28.917-77.248 114.818-77.675 197.742-78.101h21.261c82.923 0 170.099 0 197.743 78.101 15.979 21.628 24.759 47.761 25.088 74.684-0.158 15.091-4.425 29.845-12.331 42.679 11.644 18.483 17.562 40.021 17.007 61.884v3.84c-0.341 12.126 1.83 24.188 6.379 35.422l12.757 17.924c52.89 62.153 82.914 140.646 85.052 222.353-0.623 20.791-3.763 41.429-9.357 61.456zM467.938 356.083l24.239 49.079h32.747l24.239-49.079-35.721-206.989h-9.783l-35.721 206.989zM510.464 21.060c-74.419 0-122.047 0-130.127 26.889-2.551 9.391-13.183 18.778-16.585 32.435 47.585-12.476 96.698-18.082 145.859-16.644 49.724-1.463 99.405 4.139 147.563 16.644-3.401-13.658-14.033-23.044-16.585-32.435-7.654-27.315-55.283-26.035-129.698-26.889h-0.427zM685.239 280.969c-15.322-26.517-22.839-56.853-21.687-87.488 0 0 0-2.56 0-4.267-3.401-19.635-26.79-29.449-62.511-34.573l34.871 200.589c1.579 9.003 0.239 18.278-3.827 26.458l-42.526 85.359c-3.533 7.036-8.939 12.954-15.62 17.097s-14.374 6.349-22.225 6.374h-85.052c-7.923 0.055-15.71-2.112-22.473-6.259-6.758-4.147-12.233-10.108-15.799-17.212l-42.525-85.359c-4.067-8.179-5.41-17.455-3.828-26.458l34.871-200.162c-33.169 5.551-54.857 15.364-57.833 34.146 0 0 0 2.56 0 4.267 1.155 30.635-6.365 60.971-21.688 87.488-38.272 55.91-80.372 103.71-80.372 192.051-0.269 14.37 1.305 28.71 4.68 42.679 15.665 54.519 48.568 102.449 93.747 136.564s100.183 52.562 156.721 52.562c56.538 0 111.548-18.447 156.727-52.562 45.175-34.114 78.080-82.045 93.747-136.564 3.371-13.969 4.945-28.309 4.676-42.679-1.276-88.341-41.25-136.141-81.647-192.051h-0.427z" />
<glyph unicode="&#xe922;" glyph-name="home-selected" d="M613.589 799.243l264.094-197.851 1.28-2.127c4.471-3.352 8.243-7.554 11.093-12.361s4.723-10.128 5.517-15.66c0.789-5.532 0.482-11.166-0.905-16.579-1.391-5.413-3.831-10.499-7.189-14.969-3.354-4.47-7.561-8.236-12.373-11.082s-10.138-4.719-15.676-5.508c-5.538-0.794-11.179-0.486-16.597 0.9s-10.509 3.827-14.985 7.181l-264.094 197.85c-14.746 11.047-32.683 17.020-51.115 17.020s-36.369-5.973-51.115-17.020l-265.373-195.721c-4.475-3.354-9.567-5.794-14.985-7.181s-11.058-1.694-16.596-0.905c-5.537 0.789-10.865 2.662-15.678 5.513-4.813 2.845-9.018 6.609-12.374 11.079s-5.798 9.559-7.186 14.972c-1.388 5.413-1.696 11.045-0.905 16.576s2.666 10.852 5.516 15.66c2.85 4.808 6.62 9.009 11.095 12.361l264.093 197.851c29.491 22.095 65.365 34.038 102.229 34.038 36.868 0 72.738-11.943 102.229-34.038zM852.147 443.115l30.669-243.806c0.124-1.711 0.175-3.422 0.226-5.141 0.132-4.271 0.26-8.606 1.476-13.154-2.978-31.748-17.745-61.231-41.395-82.65s-54.468-33.22-86.391-33.079h-146.53c-9.037 0-17.702 3.584-24.094 9.967s-9.98 15.040-9.98 24.068v189.764c0 16.93-6.733 33.161-18.714 45.133-11.985 11.968-28.237 18.692-45.18 18.692-16.947 0-33.199-6.724-45.18-18.692-11.985-11.972-18.714-28.203-18.714-45.133v-189.764c0-9.028-3.593-17.685-9.984-24.068-6.387-6.383-15.056-9.967-24.094-9.967h-146.104c-31.922-0.141-62.74 11.661-86.39 33.079s-38.418 50.901-41.397 82.65c-0.427 5.807-0.427 11.639 0 17.446l30.669 244.655c1.714 11.379 7.643 21.705 16.613 28.932l298.17 223.378c7.373 5.524 16.341 8.507 25.557 8.507s18.185-2.984 25.557-8.507l298.167-223.378c4.659-3.418 8.567-7.744 11.499-12.719 2.927-4.975 4.817-10.492 5.542-16.213z" />
<glyph unicode="&#xe923;" glyph-name="home" d="M613.589 799.203l264.094-198.070 1.28-2.129c4.471-3.356 8.243-7.562 11.093-12.375s4.723-10.14 5.517-15.677c0.789-5.538 0.482-11.179-0.905-16.597-1.391-5.419-3.831-10.511-7.189-14.985-3.354-4.475-7.561-8.241-12.373-11.092s-10.138-4.727-15.676-5.517c-5.538-0.794-11.179-0.486-16.597 0.905-5.419 1.387-10.509 3.827-14.985 7.185l-264.094 198.069c-14.746 11.060-32.683 17.039-51.115 17.039s-36.369-5.979-51.115-17.039l-265.373-195.94c-4.475-3.354-9.567-5.798-14.985-7.185-5.419-1.391-11.058-1.698-16.596-0.905-5.537 0.789-10.865 2.667-15.678 5.517s-9.018 6.617-12.374 11.092c-3.356 4.475-5.798 9.569-7.186 14.988s-1.696 11.057-0.905 16.595c0.791 5.538 2.666 10.864 5.516 15.677s6.62 9.019 11.095 12.375l264.093 198.070c29.491 22.119 65.365 34.076 102.229 34.076 36.868 0 72.738-11.956 102.229-34.076zM835.904 472.090c8.986-6.989 14.827-17.263 16.239-28.561l30.669-234.701c2.244-18.057 0.61-36.382-4.8-53.751-5.41-17.374-14.464-33.391-26.564-46.98-12.096-13.589-26.957-24.435-43.584-31.821-16.631-7.386-34.645-11.136-52.838-10.995h-488.572c-18.193-0.141-36.208 3.61-52.836 10.995s-31.49 18.231-43.587 31.821c-12.098 13.589-21.154 29.606-26.563 46.98-5.409 17.37-7.045 35.695-4.801 53.751l30.669 234.701c1.412 11.298 7.253 21.572 16.24 28.561s20.383 10.121 31.68 8.708c11.297-1.412 21.569-7.253 28.559-16.239s10.124-20.382 8.712-31.68l-30.669-234.274c-0.792-6.042-0.28-12.177 1.503-18.005 1.783-5.824 4.794-11.2 8.832-15.761s9.007-8.205 14.572-10.684c5.565-2.479 11.598-3.733 17.689-3.682h180.177v138.859c0 16.947 6.733 33.199 18.714 45.18 11.985 11.985 28.237 18.714 45.184 18.714 16.943 0 33.195-6.729 45.18-18.714 11.981-11.981 18.714-28.233 18.714-45.18v-138.859h180.604c6.093-0.051 12.126 1.203 17.69 3.682s10.534 6.123 14.571 10.684c4.036 4.561 7.049 9.937 8.832 15.761 1.783 5.828 2.295 11.964 1.506 18.005l-30.669 234.274c-1.412 11.298 1.719 22.694 8.708 31.68s17.263 14.827 28.561 16.239c11.298 1.412 22.694-1.719 31.68-8.708z" />
<glyph unicode="&#xe924;" glyph-name="humberger-menu" d="M853.333 661.333h-682.667c-11.316 0-22.168 4.496-30.169 12.497s-12.497 18.853-12.497 30.169c0 11.316 4.496 22.168 12.497 30.169s18.853 12.497 30.169 12.497h682.667c11.315 0 22.17-4.496 30.174-12.497 8-8.001 12.493-18.853 12.493-30.169s-4.493-22.168-12.493-30.169c-8.004-8.002-18.859-12.497-30.174-12.497zM640 405.333h-469.333c-11.316 0-22.168 4.497-30.169 12.497s-12.497 18.854-12.497 30.17c0 11.315 4.496 22.17 12.497 30.17s18.853 12.497 30.169 12.497h469.333c11.315 0 22.17-4.497 30.174-12.497 8-8 12.493-18.854 12.493-30.17s-4.493-22.17-12.493-30.17c-8.004-8-18.859-12.497-30.174-12.497zM170.667 149.333h256c11.315 0 22.17 4.497 30.174 12.497 8 8 12.493 18.854 12.493 30.17s-4.493 22.17-12.493 30.17c-8.004 8-18.859 12.497-30.174 12.497h-256c-11.316 0-22.168-4.497-30.169-12.497s-12.497-18.854-12.497-30.17c0-11.315 4.496-22.17 12.497-30.17s18.853-12.497 30.169-12.497z" />
<glyph unicode="&#xe925;" glyph-name="info" d="M512 116.147c-183.277 0-331.852 148.578-331.852 331.853 0 183.277 148.575 331.852 331.852 331.852 183.275 0 331.853-148.575 331.853-331.852 0-183.275-148.578-331.853-331.853-331.853zM512 21.333c235.639 0 426.667 191.027 426.667 426.667 0 235.642-191.027 426.667-426.667 426.667-235.642 0-426.667-191.025-426.667-426.667 0-235.639 191.025-426.667 426.667-426.667zM576 597.333c0-35.346-28.655-64-64-64s-64 28.654-64 64c0 35.346 28.655 64 64 64s64-28.654 64-64zM512 490.667c-23.565 0-42.667-19.102-42.667-42.667v-170.667c0-23.565 19.102-42.667 42.667-42.667s42.667 19.102 42.667 42.667v170.667c0 23.565-19.102 42.667-42.667 42.667z" />
<glyph unicode="&#xe926;" glyph-name="keep-selected" d="M417.316 874.64h307.778c16.503 0.339 32.913-2.568 48.29-8.556s29.423-14.941 41.331-26.345c11.908-11.404 21.449-25.037 28.075-40.119s10.21-31.32 10.543-47.784v-560.723c-0.26-7.817-2.671-15.411-6.972-21.956-4.297-6.541-10.313-11.78-17.395-15.138-5.764-2.624-12.045-3.934-18.381-3.84-8.951-0.043-17.724 2.462-25.297 7.219s-13.628 11.575-17.451 19.644v469.047c-0.896 38.831-17.195 75.721-45.325 102.58-28.126 26.859-65.788 41.492-104.717 40.692h-321.025c9.182 24.647 25.594 45.964 47.096 61.176s47.095 23.61 73.449 24.105zM656.273 31.211c7.748-6.204 17.421-9.519 27.354-9.378 6.323 0.043 12.574 1.348 18.385 3.836 7.339 3.49 13.53 8.99 17.847 15.863 4.314 6.874 6.575 14.831 6.515 22.942v554.324c0 33.927-13.508 66.464-37.559 90.454s-56.67 37.467-90.679 37.467h-299.226c-34.011 0-66.628-13.477-90.677-37.467s-37.562-56.527-37.562-90.454v-554.324c-0.096-8.149 2.152-16.149 6.473-23.061s10.536-12.446 17.911-15.945c7.375-3.499 15.601-4.817 23.703-3.802 8.103 1.020 15.743 4.331 22.018 9.545l181.245 147.964c7.651 6.272 17.242 9.702 27.145 9.702 9.899 0 19.494-3.43 27.145-9.702l179.964-147.964z" />
<glyph unicode="&#xe927;" glyph-name="keep" d="M417.316 874.64h307.778c16.503 0.339 32.913-2.568 48.29-8.556s29.423-14.941 41.331-26.345c11.908-11.404 21.449-25.037 28.075-40.119s10.21-31.32 10.543-47.784v-560.723c-0.26-7.817-2.671-15.411-6.972-21.956-4.297-6.541-10.313-11.78-17.395-15.138-5.764-2.624-12.045-3.934-18.381-3.84-8.951-0.043-17.724 2.462-25.297 7.219s-13.628 11.575-17.451 19.644v469.047c-0.896 38.831-17.195 75.721-45.325 102.58-28.126 26.859-65.788 41.492-104.717 40.692h-321.025c9.182 24.647 25.594 45.964 47.096 61.176s47.095 23.61 73.449 24.105zM656.273 31.211c7.748-6.204 17.421-9.519 27.354-9.378 6.323 0.043 12.574 1.348 18.385 3.836 7.339 3.49 13.53 8.99 17.847 15.863 4.314 6.874 6.575 14.831 6.515 22.942v554.324c0 33.927-13.508 66.464-37.559 90.454s-56.67 37.467-90.679 37.467h-299.226c-34.011 0-66.628-13.477-90.677-37.467s-37.562-56.527-37.562-90.454v-554.324c-0.096-8.149 2.152-16.149 6.473-23.061s10.536-12.446 17.911-15.945c7.375-3.499 15.601-4.817 23.703-3.802 8.103 1.020 15.743 4.331 22.018 9.545l181.245 147.964c7.651 6.272 17.242 9.702 27.145 9.702 9.899 0 19.494-3.43 27.145-9.702l179.964-147.964zM268.684 648.949c8.017 7.997 18.889 12.489 30.226 12.489h300.084c11.337 0 22.208-4.492 30.225-12.489s12.518-18.842 12.518-30.151v-464.353l-111.565 90.825c-22.95 18.812-51.733 29.099-81.434 29.099-29.705 0-58.487-10.287-81.433-29.099l-111.143-90.825v464.353c0 11.309 4.504 22.155 12.521 30.151z" />
<glyph unicode="&#xe928;" glyph-name="minus-circle" d="M512 64c-212.077 0-384 171.921-384 384 0 212.077 171.923 384 384 384 212.079 0 384-171.923 384-384 0-212.079-171.921-384-384-384zM341.333 490.667c-23.564 0-42.667-19.102-42.667-42.667s19.103-42.667 42.667-42.667h341.333c23.565 0 42.667 19.102 42.667 42.667s-19.102 42.667-42.667 42.667h-341.333z" />
<glyph unicode="&#xe929;" glyph-name="minus" d="M256 448c0 23.565 19.103 42.667 42.667 42.667h426.667c23.565 0 42.667-19.102 42.667-42.667s-19.102-42.667-42.667-42.667h-426.667c-23.564 0-42.667 19.102-42.667 42.667z" />
<glyph unicode="&#xe92a;" glyph-name="mokuji" d="M170.667 704h682.667c23.565 0 42.667-19.103 42.667-42.667s-19.102-42.667-42.667-42.667h-682.667c-23.564 0-42.667 19.103-42.667 42.667s19.103 42.667 42.667 42.667zM682.667 490.667h-512c-23.564 0-42.667-19.102-42.667-42.667s19.103-42.667 42.667-42.667h512c23.565 0 42.667 19.102 42.667 42.667s-19.102 42.667-42.667 42.667zM853.333 277.333h-682.667c-23.564 0-42.667-19.102-42.667-42.667s19.103-42.667 42.667-42.667h682.667c23.565 0 42.667 19.102 42.667 42.667s-19.102 42.667-42.667 42.667z" />
<glyph unicode="&#xe92b;" glyph-name="noAvatar" d="M887.467 96c-36.267 11.58-73.348 20.42-110.933 26.453-70.4 11.947-66.987 34.133-42.667 59.733 130.987 142.080 170.667 229.973 161.707 393.813 0 101.843-40.457 199.515-112.474 271.529-72.013 72.014-169.685 112.471-271.526 112.471-101.844 0-199.515-40.457-271.529-112.471s-112.471-169.685-112.471-271.529c-6.827-163.84 30.719-251.733 161.706-393.813 23.893-25.6 27.307-47.787-42.667-59.733-37.587-6.033-74.668-14.874-110.932-26.453-68.693-22.187-135.68-59.307-135.68-117.333 0-11.315 4.493-22.17 12.495-30.17s18.856-12.497 30.172-12.497c8.042 0.021 15.914 2.317 22.708 6.622 6.794 4.301 12.232 10.436 15.69 17.698 27.138 34.577 66.57 57.348 110.081 63.573 22.872 6.221 46.096 11.063 69.547 14.507 27.733 4.693 101.972 17.067 124.159 82.773 6.761 20.847 7.293 43.213 1.534 64.354-5.76 21.146-17.562 40.149-33.961 54.686-117.76 128-145.065 192.853-139.091 331.945 0 79.212 31.466 155.18 87.476 211.19s131.98 87.476 211.19 87.476c79.211 0 155.179-31.465 211.187-87.476 56.013-56.011 87.479-131.979 87.479-211.19 5.973-139.092-21.333-204.372-139.093-331.945-16.341-14.583-28.13-33.57-33.954-54.682-5.828-21.111-5.449-43.456 1.101-64.358 22.613-65.707 96.427-78.080 124.587-82.773 23.45-3.443 46.673-8.286 69.547-14.507 43.507-6.225 82.94-28.996 110.080-63.573 3.456-7.262 8.896-13.397 15.693-17.698 6.793-4.305 14.665-6.601 22.707-6.622 11.315 0 22.17 4.497 30.17 12.497s12.497 18.854 12.497 30.17c-0.853 58.453-67.84 95.573-136.533 117.333z" />
<glyph unicode="&#xe92c;" glyph-name="plus-circle" d="M512 64c212.079 0 384 171.921 384 384 0 212.077-171.921 384-384 384-212.077 0-384-171.923-384-384 0-212.079 171.923-384 384-384zM512 661.333c23.565 0 42.667-19.103 42.667-42.667v-128h128c23.565 0 42.667-19.102 42.667-42.667s-19.102-42.667-42.667-42.667h-128v-128c0-23.565-19.102-42.667-42.667-42.667s-42.667 19.102-42.667 42.667v128h-128c-23.564 0-42.667 19.102-42.667 42.667s19.103 42.667 42.667 42.667h128v128c0 23.564 19.102 42.667 42.667 42.667z" />
<glyph unicode="&#xe92d;" glyph-name="plus-l" d="M554.667 732.445c0 31.419-19.102 56.889-42.667 56.889s-42.667-25.47-42.667-56.889v-241.778h-241.778c-31.419 0-56.889-19.102-56.889-42.667s25.47-42.667 56.889-42.667h241.778v-241.779c0-31.415 19.102-56.887 42.667-56.887s42.667 25.472 42.667 56.887v241.779h241.779c31.415 0 56.887 19.102 56.887 42.667s-25.472 42.667-56.887 42.667h-241.779v241.778z" />
<glyph unicode="&#xe92e;" glyph-name="plus" d="M554.667 661.333c0 23.564-19.102 42.667-42.667 42.667s-42.667-19.103-42.667-42.667v-170.667h-170.667c-23.564 0-42.667-19.102-42.667-42.667s19.103-42.667 42.667-42.667h170.667v-170.667c0-23.565 19.102-42.667 42.667-42.667s42.667 19.102 42.667 42.667v170.667h170.667c23.565 0 42.667 19.102 42.667 42.667s-19.102 42.667-42.667 42.667h-170.667v170.667z" />
<glyph unicode="&#xe92f;" glyph-name="purchased-selected" d="M860.557 564.532c-2.351 26.593-14.609 51.335-34.351 69.325-19.738 17.99-45.517 27.914-72.235 27.811h-61.82v35.362c0.883 44.594-15.381 87.83-45.44 120.801-30.063 32.971-71.629 53.167-116.147 56.43-23.381 1.631-46.848-1.658-68.881-9.658s-42.139-20.529-59.021-36.779c-16.809-15.902-30.204-35.056-39.366-56.297s-13.9-44.125-13.927-67.255v-42.604h-78.449c-26.716 0.104-52.497-9.821-72.237-27.811s-31.999-42.732-34.349-69.325l-35.814-403.031c-1.595-17.651 0.5-35.435 6.152-52.233 5.651-16.794 14.737-32.23 26.678-45.333 11.92-13.316 26.501-23.987 42.804-31.326s33.966-11.179 51.846-11.277h511.618c17.771-0.064 35.358 3.567 51.648 10.671 16.286 7.108 30.916 17.523 42.948 30.592 12.036 13.069 21.21 28.497 26.944 45.303 5.734 16.811 7.902 34.628 6.362 52.322l-34.961 404.311zM436.343 704.272c-0.017 11.595 2.334 23.073 6.908 33.729s11.281 20.265 19.703 28.242c8.418 7.977 18.381 14.152 29.274 18.148s22.485 5.727 34.074 5.089c22.571-2.355 43.413-13.147 58.359-30.213 14.942-17.066 22.882-39.143 22.221-61.81v-35.362h-170.539v42.177zM393.708 448.649c-8.432 0-16.677 2.5-23.688 7.181s-12.475 11.337-15.702 19.119c-3.227 7.787-4.070 16.35-2.425 24.614s5.706 15.855 11.668 21.815c5.963 5.956 13.559 10.014 21.83 11.661 8.27 1.642 16.842 0.8 24.632-2.423 7.791-3.226 14.449-8.687 19.135-15.693s7.185-15.245 7.185-23.671c0-11.298-4.493-22.135-12.489-30.123-7.995-7.991-18.839-12.48-30.147-12.48zM649.515 448.649c-8.431 0-16.674 2.5-23.689 7.181-7.010 4.681-12.471 11.337-15.701 19.119-3.226 7.787-4.070 16.35-2.423 24.614 1.643 8.265 5.705 15.855 11.669 21.815 5.961 5.956 13.559 10.014 21.828 11.661 8.269 1.642 16.841 0.8 24.631-2.423 7.791-3.226 14.451-8.687 19.136-15.693s7.185-15.245 7.185-23.671c0-11.298-4.493-22.135-12.489-30.123-7.996-7.991-18.842-12.48-30.148-12.48z" />
<glyph unicode="&#xe930;" glyph-name="purchased" d="M858.445 564.33c-2.347 26.625-14.605 51.397-34.334 69.408s-45.495 27.951-72.196 27.847h-61.79v35.404c0.883 44.648-15.373 87.935-45.419 120.946s-71.595 53.231-116.087 56.497c-23.125 1.217-46.255-2.295-67.981-10.322s-41.587-20.404-58.375-36.37c-16.788-15.966-30.151-35.188-39.271-56.495s-13.807-44.252-13.775-67.432v-42.655h-78.409c-26.703 0.104-52.471-9.833-72.201-27.844s-31.983-42.783-34.332-69.408l-35.793-403.517c-1.54-17.711 0.625-35.55 6.356-52.382 5.731-16.828 14.904-32.277 26.932-45.359 12.028-13.086 26.646-23.518 42.925-30.63s33.863-10.748 51.625-10.684h511.359c17.762-0.064 35.341 3.571 51.622 10.684 16.277 7.113 30.899 17.545 42.927 30.63 12.028 13.082 21.201 28.531 26.931 45.359 5.73 16.832 7.898 34.671 6.357 52.382l-37.073 403.942zM432.316 704.239c-0.017 11.564 2.317 23.009 6.861 33.642 4.54 10.632 11.196 20.23 19.558 28.208 8.457 7.967 18.449 14.12 29.367 18.081s22.532 5.645 34.125 4.952c22.558-2.358 43.396-13.163 58.33-30.249 14.938-17.086 22.869-39.19 22.208-61.884v-35.404h-170.449v42.655zM796.228 120.721c-4.019-4.343-8.9-7.799-14.332-10.15-5.427-2.347-11.285-3.541-17.199-3.499h-511.36c-5.915-0.043-11.773 1.152-17.202 3.499-5.429 2.351-10.309 5.807-14.331 10.15-4.041 4.395-7.117 9.587-9.025 15.245s-2.608 11.652-2.055 17.6l36.22 403.086c0.43 5.356 2.862 10.353 6.812 13.991s9.127 5.648 14.495 5.631h78.409v-42.655c0-11.311 4.488-22.161 12.479-30.161s18.832-12.493 30.134-12.493c11.302 0 22.14 4.493 30.131 12.493s12.484 18.85 12.484 30.161v42.655h170.449v-42.655c0-11.311 4.489-22.161 12.48-30.161s18.833-12.493 30.135-12.493c11.302 0 22.14 4.493 30.131 12.493s12.48 18.85 12.48 30.161v42.655h61.79c5.367 0.017 10.543-1.993 14.494-5.631s6.383-8.635 6.814-13.991l35.793-403.086c0.96-5.739 0.738-11.614-0.653-17.263-1.395-5.645-3.925-10.948-7.441-15.582h-2.133z" />
<glyph unicode="&#xe931;" glyph-name="setting" d="M597.333 277.274h-341.333c-11.316 0-22.168 4.493-30.169 12.493-8.002 7.996-12.497 18.846-12.497 30.161 0 11.311 4.496 22.161 12.497 30.161 8.001 7.996 18.853 12.493 30.169 12.493h341.333c11.315 0 22.17-4.497 30.17-12.493 8.004-8 12.497-18.85 12.497-30.161 0-11.315-4.493-22.165-12.497-30.161-8-8-18.854-12.493-30.17-12.493zM682.667 432.96v-240.998c0-11.311-4.493-22.161-12.497-30.161-8-8-18.854-12.493-30.17-12.493h-426.667c-11.316 0-22.168 4.493-30.169 12.493s-12.497 18.85-12.497 30.161v426.544c0 11.313 4.496 22.162 12.497 30.161s18.853 12.493 30.169 12.493h241.067c3.904 12.101 10.462 23.177 19.2 32.417l52.907 52.891h-313.173c-33.948 0-66.505-13.481-90.509-37.479s-37.491-56.546-37.491-90.484v-426.544c0-33.937 13.486-66.483 37.491-90.483 24.005-23.996 56.561-37.478 90.509-37.478h426.667c33.946 0 66.505 13.483 90.509 37.478 24.004 24 37.491 56.546 37.491 90.483v313.084l-52.907-54.596c-9.481-8.013-20.523-13.969-32.427-17.489zM512 440.636l151.040 30.285c8.282 1.463 15.893 5.491 21.76 11.52l241.493 241.422c7.885 7.945 12.326 18.668 12.373 29.858 0.034 5.614-1.045 11.179-3.166 16.375-2.125 5.197-5.252 9.924-9.207 13.909l-120.747 120.711c-3.968 3.998-8.683 7.171-13.884 9.337s-10.778 3.28-16.41 3.28c-5.632 0-11.209-1.115-16.41-3.28-5.197-2.166-9.916-5.339-13.884-9.337l-241.067-240.997c-6.050-5.907-10.21-13.479-11.947-21.753l-29.867-150.996c-1.374-6.852-1.041-13.939 0.969-20.634 2.010-6.69 5.632-12.791 10.551-17.754 3.985-3.955 8.717-7.083 13.914-9.207 5.201-2.121 10.765-3.196 16.38-3.166l8.107 0.427zM775.253 814.289l60.587-60.569-202.24-201.754-75.52-15.356 15.36 75.498 201.813 202.182zM420.267 499.072l6.826 34.125h-170.666c-11.316 0-22.168-4.493-30.169-12.493s-12.497-18.85-12.497-30.161c0-11.311 4.496-22.161 12.497-30.161s18.853-12.493 30.169-12.493h170.666c-7.51 15.945-9.895 33.826-6.826 51.183z" />
<glyph unicode="&#xe932;" glyph-name="share-selected" d="M533.333 682.667c0 29.535 8.759 58.407 25.165 82.965 16.41 24.558 39.735 43.698 67.021 55.001 27.29 11.302 57.314 14.26 86.281 8.498 28.971-5.762 55.578-19.985 76.463-40.87s35.106-47.493 40.866-76.461c5.764-28.968 2.807-58.993-8.495-86.281s-30.443-50.61-55.002-67.019c-24.559-16.409-53.431-25.167-82.965-25.167-19.61 0-39.027 3.863-57.148 11.367-18.116 7.505-34.581 18.505-48.448 32.371s-24.866 30.33-32.371 48.448c-7.505 18.118-11.366 37.536-11.366 57.147zM682.667 490.667c-43.951 0.137-87.484-8.567-128-25.6 38.494-25.877 70.212-60.625 92.489-101.312 22.272-40.687 34.453-86.127 35.511-132.501-2.351-33.425-13.705-65.596-32.858-93.086-19.157-27.494-45.397-49.293-75.942-63.074 35.806-7.33 72.252-11.046 108.8-11.093 167.68 0 298.667 73.387 298.667 167.253-0.427 140.8-137.387 259.413-299.093 259.413h0.427zM341.333 533.333c29.535 0 58.407 8.758 82.965 25.167 24.559 16.409 43.7 39.732 55.002 67.019s14.259 57.313 8.495 86.281c-5.76 28.968-19.981 55.577-40.866 76.461s-47.494 35.107-76.462 40.87c-28.968 5.762-58.994 2.804-86.281-8.498s-50.61-30.443-67.020-55.001c-16.409-24.558-25.167-53.43-25.167-82.965 0-39.532 15.674-77.451 43.587-105.444s65.787-43.776 105.319-43.889h0.427zM341.333 490.667c-161.707 0-298.667-118.613-298.667-259.413 0-93.867 130.987-167.253 298.667-167.253s298.667 73.387 298.667 167.253c-0.427 140.8-137.387 259.413-299.094 259.413h0.427z" />
<glyph unicode="&#xe933;" glyph-name="share" d="M684.395 533.83c-29.619 0-58.569 8.744-83.191 25.126s-43.814 39.665-55.151 66.907c-11.332 27.242-14.298 57.218-8.516 86.137 5.777 28.92 20.036 55.484 40.977 76.334s47.62 35.049 76.668 40.801c29.047 5.752 59.153 2.8 86.515-8.484 27.358-11.284 50.743-30.392 67.2-54.909 16.452-24.517 25.233-53.341 25.233-82.827 0-39.54-15.774-77.46-43.857-105.419-28.079-27.959-66.167-43.666-105.877-43.666zM684.395 746.809c-12.693 0-25.101-3.747-35.652-10.768-10.556-7.021-18.782-17-23.637-28.675s-6.127-24.522-3.652-36.916c2.479-12.394 8.589-23.779 17.566-32.714 8.973-8.936 20.407-15.021 32.853-17.487 12.45-2.465 25.353-1.2 37.077 3.636 11.729 4.836 21.751 13.025 28.8 23.532 7.053 10.508 10.816 22.86 10.816 35.497 0 16.946-6.763 33.197-18.795 45.18-12.036 11.982-28.361 18.714-45.376 18.714zM684.395 491.234c-44.070 0.137-87.718-8.555-128.346-25.557 26.347-18.859 49.711-41.545 69.303-67.302 18.854 4.962 38.259 7.535 57.758 7.667 115.938 0 213.909-79.65 213.909-173.79 0-28.54-81.289-81.783-213.909-81.783-8.559 0-16.256 0-24.815 0-21.773-31.829-51.183-57.745-85.564-75.392 35.9-7.317 72.448-11.029 109.094-11.076 168.132 0 299.473 73.263 299.473 166.976 2.564 141.841-134.763 260.258-296.905 260.258zM342.139 533.83c-29.615 0-58.565 8.744-83.189 25.126s-43.816 39.665-55.149 66.907c-11.334 27.242-14.298 57.218-8.521 86.137s20.039 55.484 40.98 76.334c20.941 20.85 47.621 35.049 76.667 40.801s59.153 2.8 86.514-8.484c27.362-11.284 50.747-30.392 67.2-54.909s25.233-53.341 25.233-82.827c0-39.54-15.774-77.46-43.857-105.419-28.079-27.959-66.166-43.666-105.878-43.666zM342.139 746.809c-12.692 0-25.099-3.747-35.652-10.768s-18.778-17-23.635-28.675c-4.857-11.675-6.128-24.522-3.652-36.916s8.588-23.779 17.563-32.714c8.975-8.936 20.408-15.021 32.857-17.487s25.351-1.2 37.077 3.636c11.726 4.836 21.749 13.025 28.8 23.532s10.814 22.86 10.814 35.497c0 16.946-6.761 33.197-18.795 45.18s-28.358 18.714-45.377 18.714zM342.139 65.276c-168.132 0-299.472 73.267-299.472 166.976 0 140.565 137.329 258.982 299.472 258.982s299.474-118.417 299.474-258.982c0-93.709-131.341-166.976-299.474-166.976zM342.139 406.042c-115.939 0-213.909-79.65-213.909-173.79 0-28.54 81.286-81.783 213.909-81.783s213.91 53.244 213.91 81.783c0 94.14-97.971 173.79-213.91 173.79z" />
<glyph unicode="&#xe934;" glyph-name="sort-by-person" d="M298.662 128.717c63.149-42.197 137.391-64.717 213.338-64.717 101.845 0 199.518 40.457 271.531 112.469s112.469 169.685 112.469 271.531c0 75.947-22.519 150.189-64.717 213.338-42.193 63.148-102.165 112.368-172.331 141.432-70.17 29.064-147.375 36.668-221.867 21.851-74.487-14.816-142.91-51.39-196.614-105.094s-90.277-122.126-105.094-196.614c-14.817-74.492-7.212-151.697 21.851-221.867 29.064-70.165 78.284-130.138 141.432-172.331zM346.071 696.332c49.115 32.818 106.861 50.333 165.929 50.333 79.211 0 155.179-31.465 211.191-87.476 56.009-56.011 87.475-131.978 87.475-211.189 0-59.072-17.515-116.817-50.334-165.931-32.815-49.114-79.462-87.398-134.037-110.003s-114.628-28.518-172.561-16.994c-57.937 11.524-111.154 39.97-152.923 81.741-41.769 41.766-70.213 94.985-81.737 152.922-11.524 57.933-5.611 117.986 16.995 172.559 22.606 54.574 60.887 101.221 110.003 134.039zM429.103 273.284c25.724-12.902 54.127-19.554 82.901-19.418 28.834-0.102 57.284 6.562 83.072 19.456s48.192 31.659 65.408 54.784c3.319 4.531 5.709 9.677 7.031 15.138 1.323 5.457 1.557 11.127 0.687 16.678-0.875 5.551-2.833 10.871-5.769 15.663s-6.788 8.956-11.337 12.254c-4.531 3.315-9.677 5.705-15.138 7.027-5.457 1.327-11.127 1.557-16.678 0.687-5.551-0.875-10.871-2.833-15.663-5.764-4.791-2.935-8.956-6.788-12.254-11.337-9.318-12.207-21.325-22.097-35.089-28.907s-28.911-10.351-44.271-10.351c-15.356 0-30.507 3.541-44.271 10.351s-25.771 16.7-35.085 28.907c-3.149 4.902-7.264 9.114-12.099 12.365-4.834 3.255-10.285 5.483-16.013 6.549s-11.613 0.947-17.295-0.35c-5.681-1.293-11.037-3.738-15.737-7.181-4.7-3.447-8.643-7.817-11.589-12.843s-4.831-10.607-5.539-16.388c-0.708-5.786-0.222-11.652 1.424-17.242s4.421-10.782 8.151-15.258c17.105-23.142 39.424-41.924 65.149-54.822zM407.042 490.667c23.563 0 42.665 19.102 42.665 42.667s-19.102 42.667-42.665 42.667c-23.564 0-42.667-19.103-42.667-42.667s19.102-42.667 42.667-42.667zM663.040 533.333c0-23.565-19.102-42.667-42.667-42.667-23.561 0-42.667 19.102-42.667 42.667s19.106 42.667 42.667 42.667c23.565 0 42.667-19.103 42.667-42.667z" />
<glyph unicode="&#xe935;" glyph-name="userInfo-selected" d="M417.183 561.669c28.065-18.753 61.064-28.762 94.817-28.762 45.265 0 88.674 17.98 120.678 49.986 32.009 32.006 49.988 75.416 49.988 120.68 0 33.755-10.010 66.752-28.762 94.818-18.756 28.066-45.406 49.94-76.591 62.857s-65.502 16.299-98.607 9.713c-33.109-6.585-63.518-22.84-87.386-46.708s-40.123-54.279-46.708-87.385c-6.585-33.106-3.204-67.421 9.713-98.607s34.791-57.838 62.857-76.591zM170.667 203.947c0-102.4 154.027-183.040 341.333-183.040s341.333 81.067 341.333 183.040c0 154.88-160 285.867-341.333 285.867s-341.333-130.987-341.333-285.867z" />
<glyph unicode="&#xe936;" glyph-name="userInfo" d="M417.183 561.669c28.065-18.753 61.064-28.762 94.817-28.762 45.265 0 88.674 17.98 120.678 49.986 32.009 32.006 49.988 75.416 49.988 120.68 0 33.755-10.010 66.752-28.762 94.818-18.756 28.066-45.406 49.94-76.591 62.857s-65.502 16.299-98.607 9.713c-33.109-6.585-63.518-22.84-87.386-46.708s-40.123-54.279-46.708-87.385c-6.585-33.106-3.204-67.421 9.713-98.607s34.791-57.838 62.857-76.591zM464.593 774.526c14.033 9.376 30.528 14.38 47.407 14.38 22.63 0 44.335-8.992 60.339-24.995s24.994-37.707 24.994-60.339c0-16.877-5.005-33.376-14.379-47.409-9.378-14.033-22.707-24.971-38.298-31.43-15.595-6.458-32.751-8.147-49.306-4.854s-31.757 11.42-43.691 23.354c-11.934 11.934-20.062 27.137-23.351 43.69-3.294 16.553-1.604 33.712 4.851 49.305 6.46 15.593 17.399 28.92 31.433 38.297zM170.667 203.947c0-102.4 154.027-183.040 341.333-183.040s341.333 81.067 341.333 183.040c0 154.88-160 285.867-341.333 285.867s-341.333-130.987-341.333-285.867zM256 204.373c0 108.8 121.173 200.533 256 200.533s256-91.733 256-200.533c0-38.827-106.24-97.707-256-97.707s-256 58.88-256 97.707z" />
<glyph unicode="&#xe937;" glyph-name="arrow-section" d="M546.138 786.489c-17.067 22.756-51.2 22.756-68.267 0l-170.666-227.555c-21.096-28.126-1.026-68.267 34.133-68.267h138.858c-0.806-0.905-1.583-1.852-2.325-2.846l-170.666-227.554c-21.096-28.126-1.026-68.267 34.133-68.267h341.333c35.162 0 55.228 40.141 34.133 68.267l-170.667 227.554c-0.742 0.994-1.519 1.941-2.325 2.846h138.859c35.162 0 55.228 40.141 34.133 68.267l-170.667 227.555z" />
<glyph unicode="&#xe938;" glyph-name="download" d="M768 64h-512c-33.948 0-66.505 13.487-90.509 37.491s-37.491 56.563-37.491 90.509v170.667c0 11.315 4.496 22.17 12.497 30.17s18.853 12.497 30.169 12.497c11.316 0 22.169-4.497 30.17-12.497s12.496-18.854 12.496-30.17v-170.667c0-11.315 4.496-22.17 12.497-30.17 8.001-8.004 18.853-12.497 30.169-12.497h512c11.315 0 22.17 4.493 30.17 12.497 8.004 8 12.497 18.854 12.497 30.17v170.667c0 11.315 4.497 22.17 12.497 30.17s18.854 12.497 30.17 12.497c11.315 0 22.17-4.497 30.17-12.497 8.004-8 12.497-18.854 12.497-30.17v-170.667c0-33.946-13.487-66.505-37.491-90.509s-56.563-37.491-90.509-37.491zM712.96 563.626c-3.964 3.999-8.687 7.174-13.884 9.34-5.201 2.166-10.778 3.281-16.41 3.281s-11.209-1.115-16.41-3.281c-5.197-2.166-9.916-5.341-13.884-9.34l-97.707-98.133v323.84c0 11.316-4.493 22.168-12.497 30.169-8 8.002-18.854 12.497-30.17 12.497s-22.17-4.496-30.17-12.497c-8-8.001-12.497-18.853-12.497-30.169v-323.84l-97.706 98.133c-8.034 8.035-18.932 12.548-30.294 12.548s-22.259-4.514-30.293-12.548c-8.035-8.034-12.548-18.931-12.548-30.293s4.514-22.259 12.548-30.293l170.666-170.667c4.058-3.883 8.841-6.929 14.080-8.96 5.107-2.257 10.628-3.422 16.213-3.422s11.106 1.165 16.213 3.422c5.171 2.159 9.933 5.193 14.080 8.96l170.667 170.667c4.002 3.968 7.172 8.687 9.34 13.884 2.167 5.201 3.281 10.778 3.281 16.41s-1.114 11.209-3.281 16.409c-2.167 5.199-5.338 9.918-9.34 13.884z" />
<glyph unicode="&#xe939;" glyph-name="favorite-selected" d="M509.653 64.009c-24.226 0.452-47.386 10.061-64.832 26.893l-13.222 11.951c-52.92 47.467-102.516 98.522-148.431 152.802-57.837 62.771-110.474 130.146-157.389 201.459-29.569 45.628-43.557 99.616-39.866 153.871s24.864 105.848 60.34 147.042c38.375 42.887 91.9 69.175 149.278 73.316s114.12-14.189 158.25-51.121c22.554-20.098 42.219-43.223 58.432-68.719 16.209 25.879 36.028 49.306 58.863 69.572 44.181 36.571 100.8 54.599 157.973 50.302 57.178-4.297 110.473-30.585 148.698-73.35 35.477-41.193 56.649-92.788 60.339-147.042s-10.295-108.243-39.868-153.871c-46.711-71.343-99.209-138.722-156.962-201.459-46.11-53.969-95.689-104.87-148.429-152.375l-13.649-12.378c-8.823-8.704-19.285-15.561-30.784-20.177-11.494-4.617-23.795-6.899-36.181-6.716h-2.56z" />
<glyph unicode="&#xe93a;" glyph-name="favorite" d="M509.653 64.009c-24.226 0.452-47.386 10.061-64.832 26.893l-13.222 11.951c-52.92 47.467-102.516 98.522-148.431 152.802-57.837 62.771-110.474 130.146-157.389 201.459-29.569 45.628-43.557 99.616-39.866 153.871s24.864 105.848 60.34 147.042c38.375 42.887 91.9 69.175 149.278 73.316s114.12-14.189 158.25-51.121c22.554-20.098 42.219-43.223 58.432-68.719 16.209 25.879 36.028 49.306 58.863 69.572 44.181 36.571 100.8 54.599 157.973 50.302 57.178-4.297 110.473-30.585 148.698-73.35 35.477-41.193 56.649-92.788 60.339-147.042s-10.295-108.243-39.868-153.871c-46.711-71.343-99.209-138.722-156.962-201.459-46.11-53.969-95.689-104.87-148.429-152.375l-13.649-12.378c-8.823-8.704-19.285-15.561-30.784-20.177-11.494-4.617-23.795-6.899-36.181-6.716h-2.56zM513.493 149.376h2.56c0 0 0 0 5.116 4.693l14.929 13.231c50.351 45.35 97.655 93.969 141.606 145.549 54.259 59.422 103.885 122.918 148.433 189.935 19.639 29.854 29.124 65.254 27.051 100.935-2.078 35.681-15.603 69.74-38.566 97.113-23.262 26.943-56.226 43.589-91.699 46.307-35.477 2.719-70.592-8.711-97.681-31.796-30.259-31.291-55.829-66.801-75.921-105.425-3.686-6.671-9.097-12.232-15.659-16.104s-14.042-5.914-21.662-5.914c-7.62 0-15.1 2.042-21.662 5.914s-11.972 9.433-15.659 16.104c-19.883 38.279-45.163 73.497-75.069 104.572-27.075 23.344-62.286 35.012-97.933 32.453s-68.832-19.138-92.3-46.111c-23.028-27.358-36.559-61.458-38.559-97.172s7.641-71.112 27.47-100.876c44.273-67.217 93.911-130.735 148.431-189.935 43.869-51.516 91.027-100.134 141.181-145.549l14.929-13.231c1.818-2.253 4.395-3.772 7.249-4.267l3.413-0.427z" />
<glyph unicode="&#xe93b;" glyph-name="list" d="M170.667 746.667h42.667c23.564 0 42.667-19.103 42.667-42.667s-19.103-42.667-42.667-42.667h-42.667c-23.564 0-42.667 19.103-42.667 42.667s19.103 42.667 42.667 42.667zM384 746.667h469.333c23.565 0 42.667-19.103 42.667-42.667s-19.102-42.667-42.667-42.667h-469.333c-23.564 0-42.667 19.103-42.667 42.667s19.103 42.667 42.667 42.667zM213.333 490.667h-42.667c-23.564 0-42.667-19.102-42.667-42.667s19.103-42.667 42.667-42.667h42.667c23.564 0 42.667 19.102 42.667 42.667s-19.103 42.667-42.667 42.667zM853.333 490.667c23.565 0 42.667-19.102 42.667-42.667s-19.102-42.667-42.667-42.667h-469.333c-23.564 0-42.667 19.102-42.667 42.667s19.103 42.667 42.667 42.667h469.333zM213.333 234.667h-42.667c-23.564 0-42.667-19.102-42.667-42.667s19.103-42.667 42.667-42.667h42.667c23.564 0 42.667 19.102 42.667 42.667s-19.103 42.667-42.667 42.667zM384 234.667h469.333c23.565 0 42.667-19.102 42.667-42.667s-19.102-42.667-42.667-42.667h-469.333c-23.564 0-42.667 19.102-42.667 42.667s19.103 42.667 42.667 42.667z" />
<glyph unicode="&#xe93c;" glyph-name="trash" d="M584.107 150.059c-5.606 0.324-11.093 1.754-16.145 4.203s-9.574 5.871-13.299 10.069c-3.725 4.194-6.588 9.088-8.418 14.391-1.826 5.303-2.59 10.918-2.244 16.516l19.627 340.993c0.324 5.601 1.758 11.082 4.207 16.13 2.453 5.048 5.879 9.562 10.078 13.285 4.203 3.722 9.101 6.579 14.409 8.407 5.312 1.828 10.927 2.591 16.533 2.245 5.606-0.326 11.093-1.755 16.145-4.204s9.574-5.871 13.299-10.068c3.725-4.198 6.588-9.089 8.414-14.393 1.83-5.304 2.594-10.916 2.249-16.514l-20.053-340.992c-0.653-10.859-5.436-21.052-13.367-28.501s-18.415-11.588-29.299-11.567h-2.133zM439.893 150.059h2.987c5.606 0.38 11.085 1.86 16.119 4.361 5.030 2.496 9.523 5.965 13.21 10.206 3.686 4.237 6.498 9.161 8.277 14.485 1.775 5.329 2.479 10.957 2.074 16.555l-22.613 340.993c-0.393 5.597-1.886 11.063-4.39 16.084-2.509 5.021-5.978 9.5-10.219 13.181s-9.165 6.492-14.49 8.272c-5.327 1.78-10.952 2.495-16.555 2.103s-11.074-1.882-16.1-4.387c-5.027-2.504-9.51-5.973-13.195-10.208s-6.498-9.152-8.28-14.474c-1.782-5.321-2.496-10.942-2.104-16.538l22.613-340.992c0.757-10.782 5.584-20.873 13.505-28.228 7.921-7.36 18.345-11.439 29.161-11.413zM853.333 682.859c0-11.305-4.497-22.147-12.497-30.141s-18.854-12.483-30.17-12.483h-597.333c-11.316 0-22.169 4.49-30.17 12.483s-12.496 18.836-12.496 30.141c0 11.305 4.495 22.145 12.496 30.139s18.854 12.485 30.17 12.485h133.12l25.173 76.297c7.206 21.209 20.869 39.637 39.077 52.706s40.049 20.125 62.47 20.18h78.080c22.434 0.008 44.305-7.023 62.528-20.101 18.219-13.078 31.868-31.541 39.019-52.785l25.173-76.297h133.12c11.243-0.112 21.986-4.653 29.892-12.634 7.91-7.982 12.348-18.758 12.348-29.99zM436.053 725.483h151.467l-16.213 49.444c-1.498 4.233-4.271 7.897-7.94 10.492-3.665 2.595-8.047 3.993-12.54 4h-76.373c-4.493-0.007-8.875-1.405-12.544-4-3.665-2.595-6.438-6.26-7.936-10.492l-17.92-49.444zM768 576.299c-5.606 0.466-11.251-0.18-16.606-1.902s-10.317-4.484-14.601-8.128c-4.284-3.645-7.804-8.099-10.355-13.108s-4.087-10.473-4.518-16.076l-32.853-390.434c-0.862-10.705-5.73-20.689-13.641-27.959s-18.278-11.29-29.026-11.255h-269.654c-10.749-0.034-21.114 3.985-29.025 11.255s-12.782 17.254-13.642 27.959l-30.293 389.582c-0.905 11.305-6.269 21.787-14.91 29.141s-19.853 10.978-31.169 10.074c-11.316-0.905-21.809-6.263-29.171-14.897s-10.988-19.834-10.083-31.138l32.852-390.861c2.682-32.034 17.342-61.884 41.063-83.61 23.72-21.722 54.759-33.719 86.937-33.609h265.814c32.179-0.111 63.215 11.887 86.938 33.609 23.718 21.726 38.383 51.575 41.062 83.61l32.853 390.861c0.589 5.57 0.077 11.201-1.51 16.573-1.591 5.371-4.224 10.378-7.748 14.732-3.529 4.355-7.881 7.972-12.804 10.646-4.928 2.673-10.334 4.35-15.91 4.935z" />
<glyph unicode="&#xe93d;" glyph-name="arrow-mirror" d="M618.667 704c4.267 0 12.8 0 17.067-4.267 4.267 0 8.533-4.267 12.8-8.533s8.533-8.533 8.533-12.8c4.267-4.267 4.267-12.8 4.267-17.067s0-12.8-4.267-17.067c-4.267-4.267-4.267-8.533-8.533-12.8l-183.467-183.467 183.467-183.467c8.533-8.533 12.8-17.067 12.8-29.867s-4.267-21.333-12.8-29.867c-8.533-8.533-17.067-12.8-29.867-12.8s-21.333 4.267-29.867 12.8l-213.333 213.333c-4.267 4.267-8.533 8.533-8.533 12.8-4.267 4.267-4.267 12.8-4.267 17.067s0 12.8 4.267 17.067c4.267 4.267 4.267 8.533 8.533 12.8l213.333 213.333c4.267 4.267 8.533 8.533 12.8 8.533 4.267 4.267 12.8 4.267 17.067 4.267z" />
<glyph unicode="&#xe93e;" glyph-name="arrow-down-s" d="M268.8 537.6c0 19.2 6.4 32 19.2 44.8 25.6 25.6 64 25.6 89.6 0l128-134.4 140.8 134.4c25.6 25.6 64 25.6 89.6 0s25.6-64 0-89.6l-179.2-179.2c-25.6-25.6-64-25.6-89.6 0l-172.8 179.2c-25.6 12.8-25.6 25.6-25.6 44.8z" />
<glyph unicode="&#xe93f;" glyph-name="long-touch" d="M349.849 304.935h-243.124c-8.281-0.455-16.57 0.737-24.383 3.51-7.814 2.777-14.998 7.078-21.13 12.653s-11.091 12.313-14.589 19.821c-3.498 7.508-5.464 15.639-5.783 23.912v494.236c0.314 8.28 2.276 16.416 5.77 23.932s8.454 14.261 14.586 19.844c6.133 5.582 13.316 9.89 21.133 12.671s16.11 3.982 24.396 3.531h647.172c8.286 0.457 16.585-0.739 24.408-3.518 7.819-2.78 15.008-7.086 21.144-12.669s11.1-12.331 14.598-19.849c3.498-7.518 5.46-15.657 5.775-23.942v-285.683c-15.925 1.179-31.932 0.575-47.722-1.801l-34.275-4.093v269.879h-614.987v-450.345h251.612l20.745-36.848c-17.888-12.026-33.285-27.39-45.346-45.24zM828.678-48.71l138.822 80.040c25.895 14.934 44.794 39.53 52.535 68.37 7.741 28.844 3.695 59.576-11.248 85.443l-21.893 37.872c-1.176 2.060-1.995 4.301-2.421 6.631l-25.338 141.451c-1.655 21.496-7.832 42.406-18.125 61.362s-24.47 35.529-41.611 48.644c-16.548 12.73-35.533 21.942-55.788 27.058-20.251 5.12-41.341 6.042-61.96 2.703l-136.937-16.376-70.066 121.226c-13.292 23.681-34.513 41.93-59.937 51.543s-53.424 9.976-79.090 1.025c-15.307-5.722-29.189-14.695-40.68-26.3s-20.319-25.566-25.875-40.915c-5.556-15.348-7.707-31.718-6.303-47.978s6.327-32.022 14.431-46.194l106.6-189.678c-25.457-1.749-49.553-12.112-68.317-29.377-18.762-17.265-31.070-40.403-34.892-65.597-3.822-25.19 1.070-50.93 13.871-72.97s32.744-39.064 56.537-48.263l200.897-78.442c4.329-1.683 7.959-4.788 10.289-8.802l12.3-21.369c14.95-25.858 39.567-44.724 68.444-52.457 28.881-7.729 59.65-3.69 85.549 11.227l0.205 0.123zM506.794 233.251l45.101-17.564c7.873-3.076 16.507-3.641 24.715-1.626s15.593 6.517 21.144 12.886c5.546 6.369 8.991 14.299 9.851 22.696 0.86 8.401-0.897 16.859-5.038 24.22l-154.034 273.687c-2.249 3.908-3.609 8.26-3.985 12.749s0.238 9.008 1.802 13.234c1.565 4.226 4.039 8.057 7.25 11.222s7.082 5.588 11.334 7.094c7.459 2.079 15.409 1.528 22.512-1.559s12.919-8.521 16.478-15.39l83.599-144.602c4.010-6.935 9.97-12.546 17.138-16.134 7.172-3.588 15.241-4.997 23.204-4.051l165.966 19.735c9.769 1.696 19.788 1.352 29.417-1.008 9.634-2.359 18.67-6.689 26.546-12.71 8.163-6.238 14.885-14.156 19.71-23.22 4.821-9.064 7.639-19.059 8.249-29.303 0.094-1.61 0.283-3.207 0.573-4.792l25.706-143.536c2.077-11.686 6.169-22.917 12.095-33.202l21.934-37.872c2.019-3.494 3.334-7.352 3.863-11.35 0.524-4.002 0.258-8.069-0.791-11.964-1.049-3.899-2.851-7.549-5.317-10.752-2.462-3.199-5.53-5.882-9.028-7.897l-138.826-80.040c-3.494-2.015-7.356-3.326-11.358-3.85-4.002-0.528-8.069-0.258-11.969 0.786s-7.557 2.851-10.756 5.308c-3.199 2.458-5.886 5.521-7.901 9.015l-12.296 21.328c-11.645 20.136-29.786 35.721-51.454 44.216l-200.897 78.402c-6.787 2.486-12.456 7.32-15.978 13.623-3.523 6.3-4.669 13.656-3.228 20.73 1.446 7.074 5.378 13.398 11.092 17.822s12.825 6.656 20.046 6.291c4.669-0.049 9.294-0.938 13.652-2.621h-0.123z" />
<glyph unicode="&#xe940;" glyph-name="rotate-minus-90" d="M85.333 149.333v597.333c0 21.333 8.533 42.667 25.6 59.733s38.4 25.6 59.733 25.6h213.333c21.333 0 42.667-8.533 59.733-25.6s25.6-38.4 25.6-59.733v-597.333c0-21.333-8.533-42.667-25.6-59.733s-38.4-25.6-59.733-25.6h-213.333c-21.333 0-42.667 8.533-59.733 25.6s-25.6 38.4-25.6 59.733zM170.667 725.333v-554.667c0-4.267 4.267-12.8 4.267-17.067 4.267 0 12.8-4.267 17.067-4.267h170.667c4.267 0 12.8 4.267 17.067 4.267 0 4.267 4.267 12.8 4.267 17.067v554.667c0 4.267-4.267 12.8-4.267 17.067-4.267 0-12.8 4.267-17.067 4.267h-170.667c-4.267 0-12.8-4.267-17.067-4.267 0-4.267-4.267-12.8-4.267-17.067zM832 149.333h-298.667c0-29.867-8.533-59.733-25.6-85.333h345.6c21.333 0 42.667 8.533 59.733 25.6s25.6 38.4 25.6 59.733v170.667c0 21.333-8.533 42.667-25.6 59.733s-38.4 25.6-59.733 25.6h-320v-85.333h298.667c4.267 0 12.8-4.267 17.067-4.267 4.267-4.267 4.267-8.533 4.267-17.067v-128c0-4.267-4.267-12.8-4.267-17.067-4.267 0-12.8-4.267-17.067-4.267v0zM725.333 746.667h-34.133l34.133 51.2c0 4.267 0 12.8 0 17.067s-4.267 8.533-8.533 12.8c0 0-8.533 4.267-12.8 4.267s-8.533 0-12.8-4.267l-149.333-106.667c-4.267 0-4.267-4.267-8.533-8.533 0-4.267-4.267-4.267-4.267-8.533s0-8.533 4.267-8.533c0-4.267 4.267-4.267 8.533-8.533l149.333-106.667c4.267-4.267 8.533-4.267 12.8-4.267s8.533 4.267 12.8 4.267c4.267 4.267 8.533 8.533 8.533 12.8s0 8.533-4.267 12.8l-29.867 55.467h34.133c34.133 0 68.267-12.8 89.6-38.4 25.6-21.333 38.4-55.467 38.4-89.6v-42.667c0-12.8 4.267-21.333 12.8-29.867s17.067-12.8 29.867-12.8 21.333 4.267 29.867 12.8c8.533 8.533 12.8 17.067 12.8 29.867v42.667c0 55.467-21.333 110.933-64 149.333-38.4 42.667-93.867 64-149.333 64z" />
<glyph unicode="&#xe941;" glyph-name="rotate-plus-90" d="M853.333 64h-213.333c-21.333 0-42.667 8.533-59.733 25.6s-25.6 38.4-25.6 59.733v597.333c0 21.333 8.533 42.667 25.6 59.733s38.4 25.6 59.733 25.6h213.333c21.333 0 42.667-8.533 59.733-25.6s25.6-38.4 25.6-59.733v-597.333c0-21.333-8.533-42.667-25.6-59.733s-38.4-25.6-59.733-25.6zM640 725.333v-554.667c0-4.267 4.267-12.8 4.267-17.067 4.267-4.267 8.533-4.267 17.067-4.267h170.667c4.267 0 12.8 4.267 17.067 4.267 4.267 4.267 4.267 8.533 4.267 17.067v554.667c0 4.267-4.267 12.8-4.267 17.067-4.267 0-12.8 4.267-17.067 4.267h-170.667c-4.267 0-12.8-4.267-17.067-4.267 0-4.267-4.267-12.8-4.267-17.067zM170.667 170.667v128c0 4.267 4.267 12.8 4.267 17.067 4.267 0 12.8 4.267 17.067 4.267h298.667v85.333h-320c-21.333 0-42.667-8.533-59.733-25.6s-25.6-38.4-25.6-59.733v-170.667c0-21.333 8.533-42.667 25.6-59.733s38.4-25.6 59.733-25.6h345.6c-17.067 25.6-25.6 55.467-25.6 85.333h-298.667c-4.267 0-12.8 4.267-17.067 4.267 0 4.267-4.267 12.8-4.267 17.067zM85.333 533.333v-42.667c0-12.8 4.267-21.333 12.8-29.867s17.067-12.8 29.867-12.8 21.333 4.267 29.867 12.8c8.533 8.533 12.8 17.067 12.8 29.867v42.667c0 34.133 12.8 68.267 38.4 89.6s55.467 38.4 89.6 38.4h34.133l-29.867-51.2c-4.267-4.267-4.267-12.8-4.267-17.067s4.267-8.533 8.533-12.8c4.267 0 8.533-4.267 12.8-4.267s8.533 0 12.8 4.267l149.333 106.667c4.267 0 4.267 4.267 8.533 8.533 0 4.267 4.267 4.267 4.267 8.533s0 8.533-4.267 8.533c0 4.267-4.267 4.267-8.533 8.533l-149.333 106.667c-4.267 4.267-8.533 4.267-12.8 4.267s-12.8-4.267-12.8-4.267c-4.267-4.267-8.533-8.533-8.533-12.8s0-8.533 4.267-12.8l29.867-55.467h-34.133c-55.467 0-110.933-21.333-149.333-64-42.667-38.4-64-93.867-64-149.333z" />
<glyph unicode="&#xe942;" glyph-name="touch" horiz-adv-x="1067" d="M302.933 375.467c-46.933 17.067-93.867 42.667-128 81.067s-55.467 85.333-64 136.533c-8.533 51.2-4.267 102.4 17.067 149.333s51.2 89.6 89.6 119.467c42.667 29.867 89.6 46.933 140.8 51.2s102.4-4.267 149.333-29.867 85.333-59.733 110.933-102.4c25.6-42.667 42.667-93.867 42.667-145.067 0-8.533 0-17.067 0-25.6l-68.267-8.533-17.067 29.867c0 0 0 4.267 0 4.267 0 34.133-8.533 68.267-25.6 98.133s-42.667 55.467-72.533 72.533c-29.867 21.333-64 29.867-98.133 25.6-34.133 0-68.267-8.533-98.133-25.6s-51.2-46.933-68.267-76.8c-12.8-29.867-21.333-64-21.333-98.133s12.8-68.267 34.133-98.133c21.333-29.867 46.933-51.2 76.8-64l38.4-68.267c-17.067-4.267-29.867-17.067-38.4-25.6zM759.467-4.267l145.067 81.067c25.6 17.067 46.933 42.667 55.467 72.533s4.267 59.733-12.8 89.6l-25.6 38.4c0 0-4.267 4.267-4.267 8.533l-25.6 145.067c0 21.333-8.533 42.667-17.067 64s-25.6 38.4-42.667 51.2c-17.067 12.8-38.4 21.333-59.733 29.867-21.333 4.267-42.667 4.267-64 4.267l-140.8-17.067-72.533 123.733c-12.8 25.6-34.133 42.667-59.733 55.467-25.6 4.267-55.467 4.267-81.067-4.267-17.067-4.267-29.867-17.067-42.667-25.6-12.8-12.8-21.333-29.867-25.6-42.667-8.533-17.067-8.533-34.133-8.533-51.2s8.533-34.133 17.067-46.933l110.933-196.267c-17.067 0-38.4-8.533-51.2-17.067s-34.133-25.6-42.667-38.4c-8.533-12.8-12.8-29.867-17.067-46.933 0-17.067 0-34.133 4.267-51.2s12.8-29.867 25.6-42.667c12.8-12.8 25.6-21.333 42.667-29.867l204.8-81.067c4.267 0 8.533-4.267 8.533-8.533l12.8-21.333c8.533-12.8 17.067-25.6 29.867-34.133s25.6-17.067 42.667-21.333c8.533-4.267 21.333-4.267 29.867-4.267 25.6 0 46.933 4.267 64 17.067v0zM426.667 290.133l46.933-17.067c8.533-4.267 17.067-4.267 25.6 0 8.533 0 17.067 8.533 21.333 12.8 4.267 8.533 8.533 12.8 8.533 25.6 0 8.533 0 17.067-4.267 25.6l-157.867 277.333c0 4.267-4.267 8.533-4.267 12.8s0 8.533 0 12.8c0 4.267 4.267 8.533 8.533 12.8s8.533 8.533 12.8 8.533c8.533 0 17.067 0 21.333 0 8.533-4.267 12.8-8.533 17.067-17.067l85.333-149.333c4.267-8.533 8.533-12.8 17.067-17.067s17.067-4.267 25.6-4.267l170.667 21.333c8.533 0 21.333 0 29.867 0 8.533-4.267 17.067-8.533 25.6-12.8 8.533-8.533 17.067-12.8 21.333-25.6 4.267-8.533 8.533-21.333 8.533-29.867 0 0 0-4.267 0-4.267l25.6-149.333c4.267-12.8 4.267-25.6 12.8-34.133l21.333-38.4c4.267-8.533 4.267-17.067 4.267-25.6-4.267-8.533-8.533-12.8-12.8-17.067l-145.067-81.067c-8.533-4.267-17.067-4.267-25.6-4.267-4.267 0-8.533 4.267-12.8 4.267-4.267 4.267-4.267 4.267-8.533 8.533l-4.267 21.333c-12.8 21.333-29.867 38.4-51.2 46.933l-204.8 81.067c-4.267 0-8.533 4.267-12.8 8.533-8.533 0-8.533 4.267-12.8 8.533 0 4.267 0 8.533 0 12.8s0 8.533 4.267 12.8c4.267 4.267 8.533 8.533 12.8 12.8s8.533 4.267 17.067 4.267c4.267 0 8.533-4.267 12.8-4.267z" />
<glyph unicode="&#xe943;" glyph-name="photo" d="M533.333 192h-298.667c-4.267 0-12.8 4.267-17.067 4.267 0 4.267-4.267 12.8-4.267 17.067v170.667c0 4.267 4.267 12.8 4.267 17.067 4.267 4.267 12.8 4.267 17.067 4.267h298.667c4.267 0 12.8-4.267 17.067-4.267 4.267-4.267 4.267-8.533 4.267-17.067v-170.667c0-4.267-4.267-12.8-4.267-17.067-4.267 0-12.8-4.267-17.067-4.267zM256 234.667h256v128h-256v-128zM597.333 448v-298.667h-426.667v298.667h426.667zM640 533.333h-512c-12.8 0-21.333-4.267-29.867-12.8s-12.8-17.067-12.8-29.867v-384c0-12.8 4.267-21.333 12.8-29.867s17.067-12.8 29.867-12.8h512c12.8 0 21.333 4.267 29.867 12.8s12.8 17.067 12.8 29.867v384c0 12.8-4.267 21.333-12.8 29.867s-17.067 12.8-29.867 12.8zM904.533 742.4l-503.467 89.6h-8.533c-8.533 0-21.333-4.267-29.867-8.533-4.267-8.533-12.8-17.067-12.8-25.6l-38.4-221.867h85.333l29.867 162.133 422.4-72.533-51.2-294.4-72.533 12.8v-85.333l98.133-17.067h8.533c8.533 0 21.333 4.267 29.867 8.533 8.533 8.533 12.8 17.067 12.8 25.6l64 379.733c0 12.8 0 21.333-8.533 29.867-4.267 8.533-17.067 17.067-25.6 17.067zM494.933 640l251.733-42.667-21.333-128v-42.667h12.8c4.267 0 8.533 0 12.8 4.267s8.533 8.533 8.533 12.8l29.867 166.4c0 4.267 0 12.8-4.267 17.067s-8.533 8.533-12.8 8.533l-294.4 51.2c-4.267 0-4.267 0-8.533 0s-4.267 0-8.533-4.267c-4.267 0-4.267-4.267-4.267-4.267 0-4.267-4.267-4.267-4.267-8.533l-17.067-93.867h42.667l17.067 64z" />
<glyph unicode="&#xe944;" glyph-name="number-3" d="M324.267 789.333h341.333c93.867 0 170.667-76.8 170.667-170.667v-341.333c0-93.867-76.8-170.667-170.667-170.667h-341.333c-93.867 0-170.667 76.8-170.667 170.667v341.333c0 93.867 76.8 170.667 170.667 170.667zM418.133 238.933c21.333-4.267 46.933-8.533 68.267-8.533 46.933 0 85.333 12.8 110.933 34.133s42.667 51.2 42.667 89.6c0 25.6-8.533 46.933-21.333 64s-34.133 29.867-55.467 38.4c21.333 8.533 34.133 21.333 46.933 38.4s17.067 38.4 17.067 59.733c0 34.133-12.8 64-38.4 81.067s-59.733 25.6-102.4 25.6c-46.933 0-85.333-12.8-119.467-34.133-8.533-4.267-17.067-12.8-17.067-21.333s0-17.067 4.267-21.333c4.267-8.533 8.533-12.8 17.067-17.067s17.067 0 25.6 4.267 29.867 17.067 42.667 17.067c12.8 4.267 25.6 4.267 42.667 4.267 21.333 0 42.667-4.267 51.2-12.8 12.8-8.533 17.067-25.6 17.067-42.667 0-21.333-8.533-34.133-21.333-46.933s-29.867-17.067-51.2-17.067h-29.867c-12.8 0-21.333-4.267-25.6-8.533s-8.533-12.8-8.533-21.333 4.267-17.067 8.533-21.333c4.267-4.267 12.8-8.533 25.6-8.533h38.4c25.6 0 46.933-4.267 59.733-12.8s21.333-25.6 21.333-42.667c0-42.667-25.6-64-81.067-64-17.067 0-29.867 0-46.933 4.267s-29.867 8.533-46.933 17.067c-8.533 4.267-21.333 8.533-29.867 4.267-8.533 0-17.067-4.267-21.333-12.8 0-4.267-4.267-12.8 0-21.333 0-8.533 8.533-17.067 17.067-21.333 17.067-12.8 38.4-21.333 59.733-25.6z" />
<glyph unicode="&#xe945;" glyph-name="number-2" d="M324.267 789.333h341.333c93.867 0 170.667-76.8 170.667-170.667v-341.333c0-93.867-76.8-170.667-170.667-170.667h-341.333c-93.867 0-170.667 76.8-170.667 170.667v341.333c0 93.867 76.8 170.667 170.667 170.667zM366.933 243.2c4.267-4.267 12.8-8.533 25.6-8.533h221.867c21.333 0 34.133 12.8 34.133 34.133s-12.8 29.867-34.133 29.867h-157.867l93.867 98.133c25.6 25.6 46.933 51.2 55.467 76.8 12.8 25.6 17.067 46.933 17.067 72.533 0 38.4-12.8 68.267-38.4 85.333-17.067 21.333-55.467 29.867-98.133 29.867-21.333 0-42.667-4.267-64-8.533s-42.667-12.8-59.733-25.6c-8.533-4.267-12.8-12.8-12.8-21.333s0-17.067 4.267-25.6c4.267-4.267 8.533-12.8 17.067-12.8 8.533-4.267 17.067 0 25.6 4.267 12.8 8.533 25.6 17.067 42.667 17.067 12.8 4.267 25.6 4.267 42.667 4.267 46.933 0 72.533-21.333 72.533-59.733 0-17.067-4.267-29.867-12.8-46.933s-21.333-34.133-38.4-51.2l-119.467-128c-8.533-8.533-12.8-12.8-17.067-21.333-4.267-4.267-4.267-12.8-4.267-21.333-4.267-8.533 0-17.067 4.267-21.333z" />
<glyph unicode="&#xe946;" glyph-name="number-1" d="M324.267 789.333h341.333c93.867 0 170.667-76.8 170.667-170.667v-341.333c0-93.867-76.8-170.667-170.667-170.667h-341.333c-93.867 0-170.667 76.8-170.667 170.667v341.333c0 93.867 76.8 170.667 170.667 170.667zM375.467 268.8c0-21.333 8.533-34.133 34.133-34.133h204.8c21.333 0 34.133 12.8 34.133 34.133s-12.8 29.867-34.133 29.867h-59.733v332.8c0 8.533-4.267 17.067-8.533 21.333-8.533 4.267-17.067 8.533-25.6 8.533s-12.8 0-21.333-4.267c-8.533-4.267-17.067-8.533-25.6-12.8l-81.067-51.2c-8.533-4.267-12.8-12.8-17.067-21.333 0-8.533 0-17.067 4.267-21.333 4.267-8.533 8.533-12.8 17.067-17.067s17.067 0 25.6 4.267l51.2 29.867v-268.8h-64c-25.6 0-34.133-12.8-34.133-29.867z" />
</font>
</defs>
</svg>
